<?xml version="1.0" encoding="UTF-8" standalone="no"?> <svg xmlns="http://www.w3.org/2000/svg"><defs><font id="Barlow"><glyph unicode=" " glyph-name="space"></glyph><glyph unicode="!" glyph-name="exclam" d="M132 232T133 242L179 690Q181 700 190 700H263Q268 700 270 697T272 690L209 242Q208 232 198 232H141Q132 232 133 242ZM112 3T97 18T82 57Q82 89 102 110T153 131Q178 131 193 117T208 77Q208 46 187 25T137 3Q112 3 97 18Z"></glyph><glyph unicode="&quot;" glyph-name="quotedbl" d="M79 482T76 484T74 492L89 686Q91 696 99 696H171Q181 696 179 686L146 492Q145 482 135 482H83Q79 482 76 484ZM225 482T226 492L241 686Q243 696 251 696H323Q331 696 331 686L297 492Q296 482 286 482H235Q225 482 226 492Z"></glyph><glyph unicode="#" glyph-name="numbersign" d="M619 420T609 420H535Q530 420 529 416L493 278Q493 274 495 274H556Q561 274 563 271T565 264L557 201Q555 191 546 191H473Q468 191 467 187L424 29Q421 20 413 20L339 21Q335 21 333 24T332 32L374 187Q374 191 372 191H237Q232 191 232 187L188 29Q185 20 177 20L103 21Q99 21 97 24T96 32L138 187Q139 188 138 189T136 191H75Q66 191 66 201L75 264Q76 274 86 274H158Q163 274 163 278L200 416Q201 417 200 418T198 420H139Q130 420 130 430L138 494Q140 504 149 504H221Q226 504 226 508L270 666Q273 675 281 675L354 674Q358 674 360 671T362 663L319 508Q319 504 322 504H457Q462 504 462 508L506 666Q507 675 516 675L590 674Q594 674 596 671T597 663L555 508Q555 504 558 504H621Q625 504 627 501T629 494L620 430Q619 420 609 420ZM398 274T399 278L436 416Q436 420 434 420H299Q294 420 294 416L257 278Q257 274 260 274H394Q398 274 399 278Z"></glyph><glyph unicode="$" glyph-name="dollar" d="M493 105T439 55T298 -6Q294 -6 294 -10L286 -80Q284 -90 275 -90H211Q201 -90 203 -80L212 -9Q214 -5 209 -5Q132 6 90 49T47 160Q47 169 49 187L53 216Q53 220 56 223T64 226H131Q135 226 137 223T139 216L136 192Q135 187 135 178Q135 132 171 104T273 75Q340 75 377 108T415 193Q415 231 384 256T273 318Q213 345 179 365T122 418T99 498Q99 506 101 524Q111 600 162 647T293 706Q296 706 298 710L306 787Q308 797 317 797H380Q389 797 389 787L378 709Q378 706 381 704Q456 693 497 649T539 537Q539 529 537 509L534 489Q534 485 531 482T523 479H456Q451 479 449 482T447 489L449 504Q450 509 450 519Q450 566 416 595T320 625Q263 625 229 600T189 526Q188 521 188 511Q188 484 202 466T244 432T328 392Q386 366 421 345T481 290T505 208Q505 201 503 183Q493 105 439 55Z"></glyph><glyph unicode="%" glyph-name="percent" d="M201 413T165 450T128 543Q128 587 151 625T212 686T293 709Q347 709 383 672T419 581Q419 536 397 498T336 436T256 413Q201 413 165 450ZM172 0T170 3T172 12L622 693Q627 700 635 700H682Q688 700 690 697T688 688L238 7Q233 0 225 0H178Q172 0 170 3ZM302 472T331 502T360 573Q360 606 339 628T285 650Q246 650 217 621T187 550Q187 517 209 495T264 472Q302 472 331 502ZM519 -9T483 28T446 120Q446 164 469 202T530 264T610 287Q665 287 701 250T737 158Q737 114 715 76T654 14T574 -9Q519 -9 483 28ZM620 50T649 80T678 150Q678 183 657 205T603 228Q564 228 535 198T505 127Q505 94 526 72T581 50Q620 50 649 80Z"></glyph><glyph unicode="&amp;" glyph-name="ampersand" d="M581 10T581 7Q581 0 572 0H489Q481 0 478 6L436 64Q434 67 430 65Q380 27 330 10T224 -8Q143 -8 94 28T44 134Q44 213 88 266T211 367Q215 368 213 372Q174 431 159 464T144 527Q144 578 169 619T239 684T340 708Q414 708 458 670T503 567Q503 497 462 447T346 350Q341 348 344 345L410 252Q421 238 430 225T447 200L451 195Q451 193 453 193T456 194Q505 248 530 279Q535 287 543 282L594 250Q602 245 596 236Q545 171 502 128Q499 125 504 119Q544 60 579 12Q581 10 581 7ZM293 620T267 599T237 541Q235 521 245 498T291 419Q294 416 297 418Q353 454 381 484T410 554Q410 585 389 602T332 620Q293 620 267 599ZM307 74T382 129Q386 132 383 135L355 175Q346 189 325 216L265 298Q264 301 260 299Q202 263 171 228T139 148Q139 113 165 94T237 74Q307 74 382 129Z"></glyph><glyph unicode="'" glyph-name="quotesingle" d="M74 486T74 496L89 688Q91 698 99 698H176Q185 698 183 688L150 496Q149 486 139 486H84Q74 486 74 496Z"></glyph><glyph unicode="(" glyph-name="parenleft" d="M83 -100T78 -94Q47 -36 29 42T11 213Q11 272 18 328Q34 457 79 568T185 756Q189 762 197 762H267Q273 762 274 759T273 750Q220 672 179 563T123 329Q116 270 116 209Q116 122 130 46T170 -88L171 -92Q171 -100 161 -100H90Q83 -100 78 -94Z"></glyph><glyph unicode=")" glyph-name="parenright" d="M243 762T246 756Q278 697 296 618T315 446Q315 389 308 334Q292 206 247 95T141 -94Q135 -100 128 -100H58Q52 -100 51 -97T52 -88Q105 -10 146 99T203 333Q210 390 210 451Q210 538 195 614T155 750L154 754Q154 762 163 762H235Q243 762 246 756Z"></glyph><glyph unicode="*" glyph-name="asterisk" d="M199 393T197 396T195 403L209 515Q209 517 208 518T204 518L98 459Q96 458 93 458Q87 458 85 463L71 497Q70 498 70 501Q70 508 76 511L183 567Q185 568 185 570T184 573L91 629Q87 631 87 635T89 643L111 677Q114 681 118 682T125 681L217 623Q219 622 220 623T222 626L236 737Q238 747 247 747H284Q294 747 292 737L279 626Q278 624 279 623T283 623L389 681Q391 682 394 682Q400 682 402 677L416 643L417 640Q417 633 410 629L303 573Q301 572 301 570T302 567L395 511Q399 509 399 505T398 497L376 463Q373 459 369 458T362 459L270 518Q268 519 267 518T265 515L251 403Q251 399 248 396T240 393H203Q199 393 197 396Z"></glyph><glyph unicode="+" glyph-name="plus" d="M469 350T469 340L461 277Q459 267 450 267H298Q296 267 295 266T293 263L274 109Q274 105 271 102T263 99H202Q192 99 194 109L213 263Q213 267 209 267H57Q47 267 49 277L56 340Q58 350 67 350H220Q221 350 222 351T224 354L244 514Q244 518 247 521T254 524H316Q320 524 322 521T324 514L304 354Q304 350 308 350H460Q469 350 469 340Z"></glyph><glyph unicode="," glyph-name="comma" d="M30 -86T28 -83T28 -75L94 147Q96 156 105 156H170Q175 156 177 153T177 145L92 -77Q91 -81 88 -83T81 -86H35Q30 -86 28 -83Z"></glyph><glyph unicode="-" glyph-name="hyphen" d="M52 264T50 267T48 274L56 337Q58 347 67 347H367Q371 347 373 344T375 337L367 274Q367 270 364 267T356 264H57Q52 264 50 267Z"></glyph><glyph unicode="." glyph-name="period" d="M86 0T71 15T56 54Q56 86 76 107T127 128Q151 128 166 113T181 72Q181 41 161 21T111 0Q86 0 71 15Z"></glyph><glyph unicode="/" glyph-name="slash" d="M11 0T10 3T10 11L322 692Q325 700 334 700H407Q418 700 413 689L102 8Q97 0 89 0H16Q11 0 10 3Z"></glyph><glyph unicode="0" glyph-name="zero" d="M165 -10T115 37T64 168Q64 178 66 202L102 498Q114 595 178 652T341 709Q431 709 482 661T533 530Q533 520 531 498L494 202Q482 105 417 48T253 -10Q165 -10 115 37ZM319 73T356 106T400 196L438 502Q439 509 439 522Q439 570 411 597T331 625Q276 625 240 592T195 502L158 196Q157 189 157 176Q157 129 185 101T263 73Q319 73 356 106Z"></glyph><glyph unicode="1" glyph-name="one" d="M237 700T244 700H321Q331 700 329 690L246 10Q244 0 235 0H161Q151 0 153 10L225 597Q225 599 224 600T220 600L114 564Q112 563 109 563Q103 563 103 571L106 628Q108 638 114 640L231 697Q237 700 244 700Z"></glyph><glyph unicode="2" glyph-name="two" d="M162 83T167 83H459Q464 83 466 80T468 73L460 10Q458 0 449 0H43Q38 0 36 3T34 10L42 71Q42 77 48 83Q93 129 228 273L299 349Q403 459 410 521Q411 526 411 536Q411 577 384 601T311 625Q261 625 228 596T189 520L185 490Q185 486 182 483T174 480H100Q95 480 93 483T91 490L96 533Q109 612 171 660T322 708Q408 708 457 663T506 546Q506 498 478 444T393 327Q325 249 186 110L165 88Q162 83 167 83Z"></glyph><glyph unicode="3" glyph-name="three" d="M463 305T463 267Q463 245 460 219Q455 167 433 121Q404 59 351 26T227 -8Q157 -8 111 29T52 129Q47 154 47 175Q47 189 49 209Q51 219 60 219H135Q144 219 143 209L142 181Q142 170 144 156Q149 119 173 97T237 75Q311 75 345 144Q360 173 367 222Q369 246 369 257Q369 291 362 313Q343 375 273 375Q264 375 253 371T229 360Q225 358 223 358Q219 358 216 363L186 415Q184 419 184 421Q184 423 188 429L377 612Q380 617 375 617H117Q113 617 111 620T109 627L117 690Q117 694 120 697T128 700H504Q514 700 512 690L504 618Q503 612 497 606L330 440Q328 439 328 437T332 434Q428 424 455 332Q463 305 463 267Z"></glyph><glyph unicode="4" glyph-name="four" d="M512 274T512 264L503 198Q503 194 500 191T493 188H451Q448 188 446 184L425 10Q423 0 414 0H340Q336 0 334 3T332 10L353 184Q354 185 353 186T350 188H55Q45 188 47 198L53 252Q55 258 58 264L301 693Q305 700 313 700H391Q396 700 398 697T397 688L164 279Q163 277 164 276T167 274H361Q362 274 363 275T365 278L383 427Q385 437 394 437H468Q478 437 476 427L458 278Q458 274 461 274H503Q512 274 512 264Z"></glyph><glyph unicode="5" glyph-name="five" d="M475 296T475 269Q475 240 472 219Q467 175 450 132Q424 68 368 31T239 -7Q169 -7 122 29T63 127Q58 155 58 176Q58 180 61 183T68 186H145Q153 186 154 177Q154 170 156 156Q161 119 185 98T248 76Q287 76 318 98T363 161Q372 182 377 219Q380 252 380 260Q380 273 379 280Q376 318 351 338T286 359Q248 359 216 342T171 295Q167 286 159 286H82Q77 286 75 289T73 296L122 690Q122 694 125 697T133 700H495Q504 700 504 690L496 627Q494 617 485 617H210Q208 617 207 616T205 613L179 404Q178 401 179 400T183 401Q236 443 307 443Q375 443 419 408T473 310Q475 296 475 269Z"></glyph><glyph unicode="6" glyph-name="six" d="M475 309T475 261Q475 241 472 218Q464 156 439 111Q410 54 360 24T242 -7Q170 -7 125 27T66 123Q60 147 60 176Q60 198 63 220L101 528Q111 610 172 659T323 708Q402 708 449 667T497 558Q497 550 495 534L493 514Q491 504 482 504H408Q398 504 400 514L401 523Q402 528 402 537Q402 576 377 600T312 624Q265 624 232 595T193 518L177 392Q177 390 178 390T182 391Q230 439 309 439Q367 439 404 415T460 345Q475 309 475 261ZM373 172T379 218Q381 238 381 247Q381 280 371 300Q350 358 284 358Q250 358 224 343T181 298Q162 264 155 213Q153 193 153 185Q153 162 159 142Q167 110 190 94T250 77Q320 77 355 141Q373 172 379 218Z"></glyph><glyph unicode="7" glyph-name="seven" d="M111 0T110 3T110 12L404 612Q405 614 405 615T402 617H168Q164 617 164 613L158 566Q156 556 147 556H89Q84 556 82 559T80 566L95 690Q97 700 106 700H505Q515 700 513 690L505 623Q505 619 504 616T502 611L209 8Q205 0 197 0H116Q111 0 110 3Z"></glyph><glyph unicode="8" glyph-name="eight" d="M468 269T468 232Q468 221 466 199Q458 135 425 87Q396 42 347 17T236 -8Q174 -8 130 17T66 91Q52 125 52 167Q52 178 54 200Q60 255 87 301Q116 349 159 370Q164 372 160 375Q132 397 119 425Q102 457 102 496Q102 569 150 629Q179 667 224 689T324 711Q379 711 418 690T476 629Q496 591 496 542Q496 478 455 423Q434 395 404 375Q399 372 403 370Q441 348 458 299Q468 269 468 232ZM199 546T196 521Q195 514 195 502Q195 474 206 454Q227 409 286 409Q344 409 378 455Q396 477 403 522L404 535Q404 554 396 573Q387 598 366 613T312 628Q282 628 257 613T216 572Q199 546 196 521ZM366 153T373 207Q375 227 375 235Q375 265 366 286Q346 338 277 338Q211 338 178 289Q164 268 156 240T147 182Q147 150 160 124Q181 76 246 76Q307 76 340 121Q366 153 373 207Z"></glyph><glyph unicode="9" glyph-name="nine" d="M496 550T496 524Q496 503 493 480L456 172Q446 90 385 41T234 -8Q154 -8 107 33T59 142Q59 150 61 166L64 186Q64 190 67 193T75 196H148Q157 196 157 186L156 177Q155 172 155 161Q155 123 179 100T244 76Q291 76 324 105T364 182L379 308Q380 310 379 311T375 310Q349 283 317 272T247 261Q190 261 152 285T96 355Q81 395 81 441Q81 461 84 482Q91 539 116 589Q145 646 196 676T315 707Q387 707 432 673T491 577Q496 550 496 524ZM394 433T401 487Q403 497 403 517Q403 540 397 558Q389 590 366 606T306 623Q271 623 244 607T202 559Q183 528 178 482Q176 460 176 451Q176 422 184 400Q207 342 272 342Q340 342 375 402Q394 433 401 487Z"></glyph><glyph unicode=":" glyph-name="colon" d="M165 344T150 359T135 398Q135 430 155 451T206 472Q230 472 245 457T260 416Q260 385 240 365T190 344Q165 344 150 359ZM124 11T109 26T94 65Q94 97 114 118T165 139Q189 139 204 124T219 83Q219 52 199 32T149 11Q124 11 109 26Z"></glyph><glyph unicode=";" glyph-name="semicolon" d="M148 335T131 352T113 395Q113 426 137 449T192 473Q218 473 237 455T256 412Q256 381 232 358T175 335Q148 335 131 352ZM64 -83T62 -80T60 -72L113 144Q116 153 124 153H190Q200 153 197 142L125 -74Q122 -83 113 -83H68Q64 -83 62 -80Z"></glyph><glyph unicode="&lt;" glyph-name="less" d="M432 43T428 41T420 40L49 226Q43 230 44 237L52 306Q53 313 61 317L477 503L481 504Q488 504 488 495L479 422Q477 414 470 411L148 274Q142 271 147 268L435 131Q442 128 442 120L433 48Q432 43 428 41Z"></glyph><glyph unicode="=" glyph-name="equal" d="M60 369T62 379L69 442Q71 452 80 452H473Q482 452 482 442L474 379Q472 369 463 369H70Q60 369 62 379ZM291 423T293 433L300 496Q302 506 311 506H704Q713 506 713 496L705 433Q703 423 694 423H301Q291 423 293 433Z"></glyph><glyph unicode="&gt;" glyph-name="greater" d="M27 39Q20 39 20 48L29 120Q31 128 38 131L359 268Q365 271 360 274L73 411Q66 414 66 422L75 495Q76 500 80 502T88 503L459 317Q465 313 464 306L456 237Q454 229 448 226L31 40L27 39Z"></glyph><glyph unicode="?" glyph-name="question" d="M181 208T179 211T177 218L183 268Q189 313 215 342T287 404Q319 426 338 443T370 484T383 540Q383 578 358 600T291 622Q243 622 211 594T173 522L170 496Q169 492 166 489T159 486L85 490Q81 490 79 493T77 500L80 522Q90 606 152 657T304 709Q385 709 432 667T479 553Q479 545 477 527Q471 483 453 451T412 399T354 354Q317 329 299 310T277 263L271 218Q269 208 260 208H186Q181 208 179 211ZM170 1T155 16T140 55Q140 86 161 107T211 129Q236 129 251 114T266 75Q266 44 245 23T195 1Q170 1 155 16Z"></glyph><glyph unicode="@" glyph-name="at" d="M580 631T641 600T736 511T769 378Q769 329 756 280Q732 185 681 133T560 81Q526 81 502 93T465 128Q462 133 459 128Q438 107 411 95T356 83Q301 83 270 111T238 185Q238 212 252 266Q265 320 281 351Q302 398 343 424T429 450Q480 450 503 417Q505 415 506 416T508 419L512 436Q515 445 523 445H569Q574 445 576 442T577 434L526 233Q522 220 522 203Q522 176 536 160T574 143Q612 143 642 178T688 277Q700 327 700 369Q700 463 642 516T485 569Q405 569 330 533T201 425T130 254Q123 220 123 184Q123 87 178 29T332 -29Q381 -29 426 -18T497 11Q505 17 510 9L531 -21L533 -26Q533 -31 527 -35Q490 -61 432 -77T315 -93Q235 -93 177 -60T88 34T57 176Q57 219 66 265Q88 376 153 459T310 586T497 631Q580 631 641 600ZM391 141T412 157T446 199Q455 214 460 234L472 280Q478 305 479 316T481 339Q481 362 466 377T425 392Q398 392 375 376T339 336Q327 311 316 264Q304 223 304 208L305 199Q303 173 319 157T364 141Q391 141 412 157Z"></glyph><glyph unicode="A" glyph-name="A" d="M469 0T466 2T462 8L441 125Q441 128 438 128H165Q162 128 161 125L112 8Q107 0 99 0H20Q15 0 14 3T14 11L310 692Q315 700 323 700H420Q423 700 426 698T430 692L561 11V9Q561 0 552 0H472Q469 0 466 2ZM194 207T195 206T199 204H422Q424 204 425 205T426 209L359 580Q359 582 357 582T353 580L195 209Q194 207 195 206Z"></glyph><glyph unicode="B" glyph-name="B" d="M462 362T466 359Q550 320 550 222Q550 214 548 192Q537 100 472 50T311 0H70Q61 0 61 10L145 690Q147 700 156 700H390Q481 700 531 661T581 545Q581 536 579 514Q566 406 467 365Q462 362 466 359ZM229 617T229 613L203 402Q202 401 203 400T206 398H352Q413 398 450 432T488 522Q488 566 460 591T379 617H233Q229 617 229 613ZM382 84T419 121T457 220Q457 266 428 292T348 318H196Q192 318 192 314L164 88Q164 86 165 85T167 84H322Q382 84 419 121Z"></glyph><glyph unicode="C" glyph-name="C" d="M181 -9T124 44T67 187Q67 197 69 221L101 480Q109 548 145 599T238 679T365 708Q462 708 519 657T576 519Q576 509 574 487V486Q572 475 563 475L489 471Q479 471 480 480V483Q482 499 482 506Q482 560 448 592T355 625Q291 625 247 586T194 483L161 217Q160 210 160 196Q160 141 194 108T288 75Q352 75 396 114T448 217V219Q450 228 459 228L532 224Q542 224 540 214Q532 148 497 98T404 19T277 -9Q181 -9 124 44Z"></glyph><glyph unicode="D" glyph-name="D" d="M61 0T61 10L145 690Q147 700 156 700H391Q483 700 536 654T589 529Q589 520 587 500L550 200Q539 109 473 55T305 0H70Q61 0 61 10ZM164 83T167 83H319Q375 83 413 118T459 214L492 486Q493 494 493 509Q493 560 465 588T384 617H233Q229 617 229 613L164 87Q164 83 167 83Z"></glyph><glyph unicode="E" glyph-name="E" d="M586 617T577 617H233Q229 617 229 613L202 398Q202 394 206 394H442Q451 394 451 384L443 321Q441 311 432 311H195Q191 311 191 307L164 87Q164 83 167 83H512Q522 83 520 73L512 10Q512 6 509 3T501 0H70Q61 0 61 10L145 690Q147 700 156 700H587Q592 700 594 697T596 690L588 627Q586 617 577 617Z"></glyph><glyph unicode="F" glyph-name="F" d="M585 617T576 617H233Q229 617 229 613L202 398Q202 394 206 394H441Q450 394 450 384L442 321Q440 311 431 311H195Q191 311 191 307L154 10Q154 6 151 3T144 0H70Q61 0 61 10L145 690Q147 700 156 700H586Q591 700 593 697T595 690L587 627Q585 617 576 617Z"></glyph><glyph unicode="G" glyph-name="G" d="M181 -8T124 45T67 188Q67 198 69 222L100 478Q108 547 144 599T238 679T365 708Q429 708 476 684T550 618T576 521Q576 511 574 491L573 480Q571 470 562 470H488Q484 470 482 473T480 480L481 489Q482 496 482 509Q482 561 448 592T355 624Q290 624 246 585T194 481L162 219Q161 211 161 197Q161 142 196 109T292 76Q355 76 397 110T446 205L456 282Q456 286 452 286H321Q311 286 313 296L320 358Q321 362 324 365T331 368H550Q554 368 556 365T558 358L542 231Q528 116 457 54T277 -8Q181 -8 124 45Z"></glyph><glyph unicode="H" glyph-name="H" d="M524 700T533 700H607Q617 700 615 690L532 10Q530 0 521 0H447Q437 0 439 10L475 307Q475 311 472 311H195Q191 311 191 307L154 10Q154 6 151 3T144 0H70Q61 0 61 10L145 690Q147 700 156 700H230Q234 700 236 697T238 690L202 398Q202 394 206 394H482Q486 394 486 398L522 690Q524 700 533 700Z"></glyph><glyph unicode="I" glyph-name="I" d="M61 0T61 10L145 690Q147 700 156 700H230Q234 700 236 697T238 690L154 10Q154 6 151 3T144 0H70Q61 0 61 10Z"></glyph><glyph unicode="J" glyph-name="J" d="M138 -8T83 42T28 176Q28 186 30 208L39 279Q41 289 50 289H124Q134 289 132 279L124 208Q123 201 123 187Q123 136 155 106T243 75Q303 75 345 111T395 208L454 690Q456 700 465 700H539Q549 700 547 690L488 208Q480 144 446 95T356 19T233 -8Q138 -8 83 42Z"></glyph><glyph unicode="K" glyph-name="K" d="M61 0T61 10L145 690Q147 700 156 700H230Q234 700 236 697T238 690L199 371Q198 369 200 369T204 370L521 694Q526 700 533 700H618Q623 700 624 697T622 688L356 407Q355 404 356 401L555 12Q556 10 556 6Q556 0 548 0H464Q456 0 453 6L283 333Q283 335 281 335T278 334L185 240Q182 237 182 235L154 10Q154 6 151 3T144 0H70Q61 0 61 10Z"></glyph><glyph unicode="L" glyph-name="L" d="M61 0T61 10L145 690Q147 700 156 700H230Q234 700 236 697T238 690L164 87Q164 83 167 83H502Q512 83 510 73L503 10Q501 0 492 0H70Q61 0 61 10Z"></glyph><glyph unicode="M" glyph-name="M" d="M590 700T597 700H671Q681 700 679 690L596 10Q594 0 585 0H511Q501 0 503 10L566 522Q566 525 564 526T561 524L396 306Q390 300 383 300H346Q340 300 335 306L222 522Q221 525 220 524T217 520L154 10Q154 6 151 3T144 0H70Q61 0 61 10L145 690Q147 700 156 700H230Q238 700 240 694L378 432Q379 431 381 431T384 432L585 694Q590 700 597 700Z"></glyph><glyph unicode="N" glyph-name="N" d="M545 694T548 697T555 700H629Q638 700 638 690L554 10Q552 0 543 0H472Q466 0 462 7L221 518Q220 521 218 521T216 517L154 10Q154 6 151 3T144 0H70Q61 0 61 10L145 690Q147 700 156 700H228Q235 700 238 693L478 182Q479 179 481 179T483 183L545 690Q545 694 548 697Z"></glyph><glyph unicode="O" glyph-name="O" d="M183 -9T126 46T68 194Q68 218 70 231L99 469Q108 540 144 594T239 678T368 708Q466 708 523 653T581 506Q581 482 579 469L550 231Q542 160 505 106T410 21T280 -9Q183 -9 126 46ZM357 74T402 116T457 227L486 470Q488 488 488 496Q488 555 453 590T358 625Q293 625 247 583T193 470L163 227Q161 209 161 201Q161 143 196 109T290 74Q357 74 402 116Z"></glyph><glyph unicode="P" glyph-name="P" d="M493 701T540 655T588 530Q588 520 586 498Q575 407 513 353T359 298H188Q184 298 184 294L149 10Q147 0 138 0H64Q54 0 56 10L139 691Q141 701 150 701H412Q493 701 540 655ZM417 376T455 415T494 515Q494 562 466 590T389 618H227Q223 618 223 614L194 380Q194 378 195 377T197 376H359Q417 376 455 415Z"></glyph><glyph unicode="Q" glyph-name="Q" d="M445 708T500 654T555 509Q555 485 553 473L522 221Q511 132 455 72T313 -3Q310 -4 308 -8L297 -99Q297 -103 294 -106T286 -109H213Q208 -109 206 -106T204 -99L215 -8Q217 -5 212 -3Q139 10 98 60T56 186Q56 209 58 221L89 473Q97 543 133 596T225 678T350 708Q445 708 500 654ZM460 478Q462 494 462 502Q462 558 429 591T340 625Q277 625 234 585T183 478L151 222Q150 214 150 200Q150 143 182 109T272 75Q334 75 377 115T429 222L460 478Z"></glyph><glyph unicode="R" glyph-name="R" d="M440 0T437 7L338 306Q338 309 335 309H195Q191 309 191 305L154 10Q154 6 151 3T144 0H70Q61 0 61 10L145 690Q147 700 156 700H417Q496 700 542 655T589 533Q589 523 587 501Q579 431 538 383T431 317Q428 316 428 312L532 12L533 8Q533 0 524 0H447Q440 0 437 7ZM229 617T229 613L201 389Q201 385 204 385H366Q422 385 458 422T495 519Q495 564 468 590T395 617H233Q229 617 229 613Z"></glyph><glyph unicode="S" glyph-name="S" d="M165 -8T106 37T47 162Q47 169 49 187L53 216Q53 220 56 223T64 226H134Q139 226 141 223T143 216L140 192Q139 188 139 179Q139 133 178 104T286 75Q357 75 395 108T434 193Q434 231 401 256T284 318Q221 345 185 365T124 418T100 499Q100 563 131 610T217 683T346 708Q446 708 504 661T563 535Q563 527 561 509L559 489Q557 479 548 479H475Q466 479 466 489L468 504Q469 509 469 520Q469 566 433 595T332 625Q266 625 230 595T193 511Q193 484 208 465T253 431T342 392Q403 366 441 345T504 290T529 207Q529 199 527 183Q516 96 447 44T269 -8Q165 -8 106 37Z"></glyph><glyph unicode="T" glyph-name="T" d="M588 700T586 690L578 626Q578 622 575 619T567 616H381Q377 616 377 612L303 10Q301 0 292 0H218Q208 0 210 10L284 612Q284 616 280 616H103Q94 616 94 626L102 690Q104 700 113 700H578Q588 700 586 690Z"></glyph><glyph unicode="U" glyph-name="U" d="M193 -8T136 45T79 188Q79 198 81 222L138 690Q140 700 149 700H223Q233 700 231 690L173 220Q172 213 172 199Q172 143 207 109T301 75Q366 75 411 115T464 220L521 690Q523 700 532 700H606Q616 700 614 690L557 222Q549 154 513 102T420 21T291 -8Q193 -8 136 45Z"></glyph><glyph unicode="V" glyph-name="V" d="M228 0T225 2T221 8L97 689V691Q97 700 106 700H185Q193 700 196 692L288 139Q288 137 290 137T294 139L521 692Q526 700 533 700H610Q621 700 616 689L323 8Q318 0 310 0H232Q228 0 225 2Z"></glyph><glyph unicode="W" glyph-name="W" d="M191 0T189 8L90 689V691Q90 695 93 697T100 700H179Q187 700 189 691L255 193Q255 191 256 191T259 193L441 691Q444 700 453 700H529Q537 700 539 691L605 192Q605 190 606 190T608 192L798 691Q799 695 802 697T810 700H883Q894 700 891 689L632 9Q628 0 620 0H545Q536 0 536 9L472 525Q471 528 470 528T468 525L281 9Q280 0 270 0H199Q191 0 189 8Z"></glyph><glyph unicode="X" glyph-name="X" d="M17 0T15 3T17 12L258 347Q259 349 259 353L100 688Q99 690 99 693Q99 700 108 700H189Q195 700 200 693L323 428Q324 427 326 427T329 428L518 693Q523 700 530 700H610Q616 700 617 697T615 688L375 352Q373 348 374 346L532 12Q533 10 533 7Q533 0 524 0H444Q438 0 433 7L310 271Q309 273 307 273T304 271L115 7Q110 0 103 0H22Q17 0 15 3Z"></glyph><glyph unicode="Y" glyph-name="Y" d="M217 1T219 11L253 292Q253 293 253 294T253 297L99 688L98 692Q98 700 107 700H187Q195 700 198 693L310 400Q311 398 313 398T316 400L500 693Q504 700 513 700H593Q598 700 600 697T599 688L348 297Q346 295 346 292L312 11Q310 1 301 1H227Q217 1 219 11Z"></glyph><glyph unicode="Z" glyph-name="Z" d="M20 0T22 10L30 80Q32 89 36 93L439 612Q441 614 440 615T437 617H106Q97 617 97 627L105 690Q107 700 116 700H547Q557 700 555 690L547 620Q545 611 541 607L136 88Q134 86 135 85T138 83H471Q481 83 479 73L472 10Q470 0 461 0H30Q20 0 22 10Z"></glyph><glyph unicode="[" glyph-name="bracketleft" d="M2 -130T0 -127T-2 -120L108 774Q108 778 111 781T119 784H322Q331 784 331 774L323 710Q321 700 312 700H196Q194 700 193 699T191 696L100 -43Q100 -47 104 -47H221Q230 -47 230 -57L222 -120Q220 -130 211 -130H6Q2 -130 0 -127Z"></glyph><glyph unicode="\" glyph-name="backslash" d="M367 9Q367 0 358 0H285Q277 0 275 8L130 689V691Q130 700 139 700H212Q220 700 223 692L367 11V9Z"></glyph><glyph unicode="]" glyph-name="bracketright" d="M313 -130T304 -130H99Q95 -130 93 -127T91 -120L99 -57Q99 -53 102 -50T110 -47H227Q231 -47 231 -43L322 696Q322 700 319 700H201Q197 700 195 703T193 710L201 774Q203 784 212 784H416Q421 784 423 781T425 774L315 -120Q313 -130 304 -130Z"></glyph><glyph unicode="^" glyph-name="asciicircum" d="M59 304T57 307T57 316L244 692Q248 700 256 700H321Q329 700 330 692L426 316V313Q426 309 424 307T417 304H356Q347 304 346 312L279 598Q279 601 277 601T273 598L136 312Q133 304 124 304H64Q59 304 57 307Z"></glyph><glyph unicode="_" glyph-name="underscore" d="M10 0T8 3T6 10L13 65Q15 75 24 75H439Q449 75 447 65L441 10Q439 0 430 0H15Q10 0 8 3Z"></glyph><glyph unicode="`" glyph-name="grave" d="M226 584T226 581Q226 577 223 575T215 573H163Q157 573 152 580L98 688Q97 690 97 694Q97 700 105 700H170Q178 700 181 693L225 585Q226 584 226 581Z"></glyph><glyph unicode="a" glyph-name="a" d="M418 509T427 509H501Q511 509 509 499L449 10Q449 6 446 3T438 0H365Q356 0 356 10L363 66Q364 69 362 69T359 67Q307 -8 219 -8Q155 -8 112 31T60 135Q58 157 58 168Q58 196 65 254Q70 297 76 327T94 383Q117 442 169 479T288 517Q376 517 405 446Q406 443 407 443T410 447L416 499Q418 509 427 509ZM373 174T377 192T386 253Q392 295 392 324Q392 334 390 352Q385 388 362 411T299 434Q258 434 227 411T183 351Q176 336 172 318T162 255Q156 203 156 186Q156 172 159 158Q162 121 188 98T255 75Q295 75 323 98T366 158Q373 174 377 192Z"></glyph><glyph unicode="b" glyph-name="b" d="M498 355T498 318Q498 285 494 256Q485 180 460 128Q432 63 381 28T260 -8Q226 -8 199 5T153 45Q151 47 150 46T148 43L144 10Q142 0 133 0H59Q49 0 51 10L134 690Q136 700 145 700H219Q229 700 227 690L200 467Q200 461 204 465Q229 490 260 503T324 517Q396 517 438 480T493 377Q498 355 498 318ZM390 175T400 254Q403 278 403 299Q403 353 385 386Q374 409 354 421T305 434Q250 434 216 383Q185 337 175 255Q171 215 171 201Q171 158 183 129Q205 75 261 75Q325 75 360 130Q390 175 400 254Z"></glyph><glyph unicode="c" glyph-name="c" d="M172 -8T125 30T65 135Q61 158 61 190Q61 224 65 256Q74 328 95 377Q121 441 179 479T310 517Q383 517 432 479T491 383Q495 366 495 350Q494 341 485 340L411 329H409Q401 329 401 338L399 354Q396 388 369 411T299 434Q256 434 225 411T180 350Q168 321 159 255Q155 222 155 193Q155 179 157 161Q162 121 187 98T255 75Q297 75 330 98T376 158L378 163Q378 166 379 167Q380 171 383 172T390 173L461 161Q469 159 468 153Q468 150 467 149Q466 144 460 127Q435 66 377 29T245 -8Q172 -8 125 30Z"></glyph><glyph unicode="d" glyph-name="d" d="M440 694T443 697T451 700H524Q529 700 531 697T533 690L449 10Q449 6 446 3T438 0H365Q356 0 356 10L360 43Q361 45 360 46T356 45Q332 19 301 6T236 -8Q166 -8 124 27T69 128Q62 157 62 196Q62 228 66 256Q75 327 97 377Q125 443 176 480T300 517Q334 517 361 504T407 465Q409 463 410 464T412 467L440 690Q440 694 443 697ZM375 172T384 255Q388 283 388 312Q388 355 376 383Q353 434 300 434Q243 434 207 386Q170 336 160 254Q157 227 157 205Q157 160 169 130Q179 103 201 89T255 75Q310 75 347 129Q375 172 384 255Z"></glyph><glyph unicode="e" glyph-name="e" d="M487 290T479 226Q478 216 468 216H158Q154 216 154 212Q152 188 152 180Q152 170 154 160Q159 120 188 98T268 75Q339 75 386 136Q392 146 399 139L450 101Q456 95 451 88Q418 42 365 17T249 -9Q178 -9 134 22T72 114Q62 148 62 194Q62 213 66 257Q71 295 76 321T91 368Q117 437 174 477T306 517Q402 517 444 468T487 325Q487 290 479 226ZM254 434T225 413T180 355Q171 333 165 299Q164 295 168 295H390Q394 295 394 299Q396 323 396 331Q396 377 370 405T296 434Q254 434 225 413Z"></glyph><glyph unicode="f" glyph-name="f" d="M292 616T273 597T247 525L245 513Q245 509 249 509H351Q355 509 357 506T359 499L351 431Q349 421 340 421H238Q234 421 234 417L184 10Q183 6 180 3T173 0H99Q90 0 90 10L140 417Q141 418 140 419T137 421H72Q62 421 64 431L72 499Q74 509 83 509H148Q152 509 152 513L154 531Q162 597 182 633T239 684T342 700H375Q385 700 383 690L376 626Q374 616 365 616H341Q292 616 273 597Z"></glyph><glyph unicode="g" glyph-name="g" d="M415 509T424 509H498Q508 509 506 499L448 26Q433 -95 361 -147T176 -199Q160 -199 128 -197Q119 -196 120 -186L131 -117Q132 -112 135 -110T143 -108Q157 -109 183 -109Q265 -109 305 -78T356 29L358 47Q358 53 353 49Q307 0 228 0Q165 0 118 34T60 134Q57 155 57 179Q57 211 62 256Q72 336 93 384Q119 444 170 480T286 517Q365 517 405 467Q408 462 410 468L413 499Q415 509 424 509ZM371 178T374 195T384 257Q390 311 390 326Q390 334 388 350Q385 387 361 410T296 434Q256 434 226 411T179 350Q163 317 157 257Q152 212 152 193Q152 174 155 163Q160 126 186 103T252 79Q294 79 324 102T366 163Q371 178 374 195Z"></glyph><glyph unicode="h" glyph-name="h" d="M404 516T444 477T485 369Q485 360 483 340L443 10Q442 6 439 3T432 0H358Q349 0 349 10L388 321Q389 327 389 339Q389 381 365 407T299 433Q252 433 220 402T181 322L143 10Q141 0 132 0H58Q48 0 50 10L133 690Q135 700 144 700H218Q228 700 226 690L198 463Q198 461 199 460T202 461Q250 516 332 516Q404 516 444 477Z"></glyph><glyph unicode="i" glyph-name="i" d="M152 589T137 604T122 643Q122 675 142 696T193 717Q218 717 233 703T248 663Q248 632 227 611T177 589Q152 589 137 604ZM56 1T58 11L118 499Q118 503 121 506T128 509H202Q211 509 211 499L151 11Q149 1 140 1H66Q56 1 58 11Z"></glyph><glyph unicode="j" glyph-name="j" d="M146 589T131 604T116 644Q116 676 136 696T186 717Q211 717 226 703T241 663Q241 632 220 611T170 589Q146 589 131 604ZM-88 -207T-86 -197L-79 -135Q-77 -125 -67 -125Q-12 -125 15 -102T49 -29L113 499Q113 503 116 506T124 509H197Q202 509 204 506T206 499L141 -28Q133 -94 109 -133T40 -190T-78 -207Q-88 -207 -86 -197Z"></glyph><glyph unicode="k" glyph-name="k" d="M48 0T50 10L133 690Q135 700 144 700H218Q228 700 226 690L179 305Q179 303 180 302T184 303L388 504Q392 509 400 509H486Q492 509 493 506T490 497L346 348Q344 344 345 342L453 12V9Q453 5 450 3T443 0H366Q357 0 356 8L274 280Q272 284 269 281L165 177Q163 173 163 172L143 10Q141 0 132 0H58Q48 0 50 10Z"></glyph><glyph unicode="l" glyph-name="l" d="M48 0T50 10L133 690Q135 700 144 700H218Q228 700 226 690L143 10Q141 0 132 0H58Q48 0 50 10Z"></glyph><glyph unicode="m" glyph-name="m" d="M691 516T728 479T765 375Q765 366 763 344L722 10Q720 0 711 0H638Q628 0 630 10L668 324Q669 331 669 345Q669 386 647 409T584 433Q539 433 508 404T470 326L431 10Q429 0 420 0H347Q337 0 339 10L377 324Q378 331 378 345Q378 386 356 409T293 433Q248 433 218 404T182 326L143 10Q141 0 132 0H58Q48 0 50 10L110 499Q112 509 121 509H194Q199 509 201 506T203 499L199 465Q198 463 199 462T203 463Q253 516 334 516Q383 516 416 497T463 439Q466 435 469 439Q496 478 537 497T625 516Q691 516 728 479Z"></glyph><glyph unicode="n" glyph-name="n" d="M404 516T444 477T485 369Q485 360 483 340L443 10Q442 6 439 3T432 0H358Q349 0 349 10L388 321Q389 327 389 339Q389 381 365 407T299 433Q252 433 220 402T181 322L143 10Q141 0 132 0H58Q48 0 50 10L110 499Q112 509 121 509H194Q199 509 201 506T203 499L198 463Q198 461 199 460T202 461Q250 516 332 516Q404 516 444 477Z"></glyph><glyph unicode="o" glyph-name="o" d="M177 -8T129 29T67 134Q61 163 61 201Q61 229 64 256Q74 329 96 376Q125 442 183 479T315 517Q385 517 432 480T493 377Q499 349 499 313Q499 286 496 257Q488 187 464 134Q434 67 377 30T249 -8Q177 -8 129 29ZM299 75T331 97T380 161Q396 204 402 255Q406 299 406 317Q406 330 404 348Q396 389 370 411T302 434Q262 434 230 412T180 348Q166 314 158 255Q155 228 155 203Q155 179 158 161Q164 121 191 98T259 75Q299 75 331 97Z"></glyph><glyph unicode="p" glyph-name="p" d="M503 352T503 312Q503 281 499 253Q490 182 468 132Q439 65 388 29T265 -8Q231 -8 204 5T158 44Q156 46 155 45T153 42L125 -181Q123 -191 114 -191H41Q36 -191 34 -188T32 -181L116 499Q116 503 119 506T127 509H200Q209 509 209 499L205 466Q204 464 205 463T209 464Q233 490 264 503T329 517Q399 517 441 482T496 381Q503 352 503 312ZM395 171T405 255Q408 282 408 304Q408 349 396 379Q386 406 364 420T310 434Q255 434 218 380Q189 336 180 254Q176 214 176 200Q176 157 189 126Q211 75 265 75Q322 75 358 123Q395 171 405 255Z"></glyph><glyph unicode="q" glyph-name="q" d="M418 509T427 509H501Q511 509 509 499L426 -181Q424 -191 415 -191H341Q331 -191 333 -181L360 42Q361 44 360 45T356 44Q332 19 301 6T236 -8Q163 -8 121 28T67 132Q62 155 62 191Q62 224 66 253Q75 327 100 381Q129 446 179 481T300 517Q334 517 361 504T407 464Q409 462 410 463T412 466L416 499Q418 509 427 509ZM374 169T384 254Q388 282 388 311Q388 352 377 380Q355 434 299 434Q235 434 200 379Q170 331 160 255Q157 231 157 209Q157 156 175 123Q198 75 256 75Q310 75 344 126Q374 169 384 254Z"></glyph><glyph unicode="r" glyph-name="r" d="M359 514T383 501Q390 498 386 489L361 414Q358 405 349 408Q333 415 311 415L297 414Q252 412 219 382T179 302L143 10Q141 0 132 0H58Q48 0 50 10L110 499Q112 509 121 509H194Q199 509 201 506T203 499L196 446Q196 443 197 443T200 444Q252 514 328 514Q359 514 383 501Z"></glyph><glyph unicode="s" glyph-name="s" d="M139 -6T91 29T42 118Q42 127 43 131L45 142Q45 146 48 149T56 152H125Q130 152 132 149T134 142L133 137Q130 109 157 88T229 67Q276 67 306 88T336 142Q336 168 313 181T238 210Q187 225 154 240T98 282T75 350Q75 425 132 469T280 514Q359 514 406 479T453 386Q453 375 452 370L451 367Q451 363 448 360T441 357H373Q368 357 366 360T364 367L365 370Q368 399 343 418T270 438Q224 438 195 420T166 369Q166 343 190 329T266 299Q318 284 351 270T407 229T431 160Q431 110 405 73T330 15T221 -6Q139 -6 91 29Z"></glyph><glyph unicode="t" glyph-name="t" d="M344 430T335 430H230Q226 430 226 426L193 161Q192 154 192 142Q192 110 208 96T259 82H287Q292 82 294 79T296 72L288 10Q288 0 278 0Q246 -2 233 -2Q166 -2 132 19T98 98Q98 107 100 127L137 426Q137 430 133 430H74Q64 430 66 440L73 499Q75 509 84 509H143Q147 509 147 513L162 631Q164 641 173 641H243Q247 641 249 638T251 631L237 513Q236 512 237 511T240 509H345Q355 509 353 499L346 440Q344 430 335 430Z"></glyph><glyph unicode="u" glyph-name="u" d="M404 503T407 506T415 509H487Q492 509 494 506T496 499L436 10Q434 0 425 0H352Q342 0 344 10L348 47Q349 49 348 49T344 48Q298 -7 217 -7Q150 -7 105 30T60 134Q60 150 61 158L103 499Q105 509 114 509H187Q191 509 193 506T195 499L157 188Q156 181 156 168Q156 125 179 101T245 76Q294 76 326 106T365 188L404 499Q404 503 407 506Z"></glyph><glyph unicode="v" glyph-name="v" d="M175 0T172 2T168 8L70 498V500Q70 509 79 509H160Q164 509 167 507T171 501L233 139Q234 137 236 137T239 139L389 501Q394 509 402 509L483 508Q495 508 490 497L273 8Q268 0 260 0H178Q175 0 172 2Z"></glyph><glyph unicode="w" glyph-name="w" d="M151 0T148 8L69 498V500Q69 509 79 509H155Q159 509 161 507T164 500L212 137Q212 135 214 135T217 137L355 500Q359 509 367 509H434Q442 509 444 500L495 138Q496 136 497 136T500 138L640 500Q644 509 652 509L727 508Q739 508 734 497L534 8Q529 0 522 0H446Q439 0 437 8L383 346Q382 348 381 348T378 346L247 9Q243 0 235 0H158Q151 0 148 8Z"></glyph><glyph unicode="x" glyph-name="x" d="M8 0T7 3T8 12L199 251Q201 254 199 257L68 497L67 501Q67 509 76 509H155Q162 509 166 503L258 332Q259 331 261 331T264 332L397 503Q402 509 410 509H494Q500 509 501 506T499 497L309 257Q308 255 308 251L440 12Q441 11 441 8Q441 5 439 3T432 0H352Q345 0 341 6L250 177Q249 179 247 179T244 177L109 6Q105 0 97 0H14Q8 0 7 3Z"></glyph><glyph unicode="y" glyph-name="y" d="M7 -199T5 -196T4 -189L11 -130Q13 -120 22 -120H24Q63 -119 86 -110T127 -77T165 -3Q166 -2 166 0T165 3L64 498V500Q64 509 73 509H152Q160 509 162 501L226 124Q226 122 228 122T232 124L386 501Q391 509 399 509H476Q487 509 482 498L240 -35Q209 -103 183 -137T119 -185T16 -199H10Q7 -199 5 -196Z"></glyph><glyph unicode="z" glyph-name="z" d="M15 0T13 3T11 10L20 80Q20 87 25 92L322 416Q324 418 323 419T320 421H76Q67 421 67 431L76 499Q78 509 87 509H437Q447 509 445 499L437 428Q436 421 431 416L131 92Q129 91 129 89T132 87H386Q395 87 395 77L386 10Q386 6 383 3T375 0H19Q15 0 13 3Z"></glyph><glyph unicode="{" glyph-name="braceleft" d="M73 -130T73 -40Q73 -33 75 -13L101 200Q103 218 103 226Q103 284 58 290Q48 291 50 301L57 358Q57 367 67 369Q96 373 112 394T133 458L158 666Q166 726 196 755T283 784H353Q358 784 360 781T362 774L354 710Q352 700 343 700H310Q256 700 247 630L225 448Q219 401 204 374T159 332Q154 330 159 327Q179 316 188 296T198 244Q198 235 196 211L173 24Q172 17 172 5Q172 -47 218 -47H251Q260 -47 260 -57L252 -120Q250 -130 241 -130H170Q73 -130 73 -40Z"></glyph><glyph unicode="|" glyph-name="bar" d="M11 -80T13 -70L113 750Q114 754 117 757T124 760H198Q207 760 207 750L106 -70Q104 -80 95 -80H21Q11 -80 13 -70Z"></glyph><glyph unicode="}" glyph-name="braceright" d="M6 -130Q2 -130 0 -127T-2 -120L6 -57Q6 -53 9 -50T17 -47H50Q77 -47 93 -29T114 24L136 211Q142 258 158 286T202 327Q207 331 202 332Q182 343 173 362T164 412Q164 435 166 448L188 630Q189 636 189 647Q189 700 142 700H108Q98 700 100 710L108 774Q108 778 111 781T119 784H190Q239 784 263 762T287 693Q287 686 285 666L260 458Q258 438 258 431Q258 402 268 387T302 369Q311 368 311 358L304 301Q302 291 293 290Q265 286 249 265T228 200L202 -13Q195 -73 165 -101T78 -130H6Z"></glyph><glyph unicode="~" glyph-name="asciitilde" d="M319 220T300 228T256 252Q234 265 218 272T181 279Q139 279 107 242L105 238Q99 232 93 237L55 265Q48 271 52 278Q72 316 109 339T188 363Q213 363 231 356T268 337Q273 334 289 324T320 309T351 304Q371 304 386 314T418 343Q425 351 431 346L474 314Q481 307 477 301Q455 265 420 243T346 220Q319 220 300 228Z"></glyph><glyph unicode=" " glyph-name="uni00A0"></glyph><glyph unicode="¡" glyph-name="exclamdown" d="M248 708T263 693T278 653Q278 621 258 601T208 580Q183 580 168 594T153 634Q153 665 174 686T224 708Q248 708 263 693ZM161 478T171 478H228Q238 478 237 468L190 21Q188 11 179 11H105Q95 11 97 21L160 468Q161 478 171 478Z"></glyph><glyph unicode="¢" glyph-name="cent" d="M389 253Q389 256 390 257Q393 265 401 263L472 251Q480 249 479 243Q479 240 478 239Q477 234 471 217Q450 164 402 129T292 84Q287 84 287 80L280 6Q278 -4 269 -4H205Q195 -4 197 6L208 83Q208 87 205 88Q153 100 119 136T76 225Q72 246 72 278Q72 313 76 346Q85 418 106 467Q127 518 169 553T266 601Q270 602 270 606L279 681Q279 685 282 688T290 691H353Q357 691 359 688T361 681L351 609Q351 605 354 605Q414 596 454 560T502 473Q506 456 506 440Q505 431 496 430L422 419H420Q414 419 412 428L411 444Q407 478 380 501T310 524Q268 524 237 501T191 440Q179 411 170 345Q166 312 166 283Q166 269 168 251Q173 211 198 188T266 165Q308 165 341 188T387 248L389 253Z"></glyph><glyph unicode="£" glyph-name="sterling" d="M206 86T206 85T210 83H540Q550 83 548 73L541 10Q540 6 537 3T530 0H100Q91 0 91 10L99 75Q101 83 108 87Q133 102 149 131T170 199L182 297Q182 301 179 301H107Q98 301 98 311L105 369Q106 373 109 376T116 379H188Q191 379 193 383L207 504Q219 600 281 654T437 708Q507 708 548 671T604 566V564Q604 556 596 554L524 541H521Q515 541 514 548Q505 588 484 606T427 625Q374 625 341 596T301 506L286 383Q285 382 286 381T289 379H472Q477 379 479 376T481 369L474 311Q472 301 463 301H279Q278 301 277 300T275 297L263 201Q255 132 209 88Q206 86 206 85Z"></glyph><glyph unicode="¤" glyph-name="currency" d="M478 256T432 192Q430 188 432 186L488 121Q490 119 490 116Q490 111 486 107L434 65Q431 62 427 62Q424 62 420 66L368 128Q365 131 362 129Q310 97 252 97Q193 97 152 126Q149 128 146 125L81 66Q73 59 67 65L27 107Q20 114 27 121L94 181Q96 183 96 187Q74 229 74 277Q74 353 121 413Q123 416 120 419L65 484Q63 488 63 489Q63 494 68 498L119 539Q126 546 132 538L185 477Q187 475 190 476Q244 508 302 508Q362 508 408 473Q411 471 414 474L485 538Q493 545 499 539L539 498Q546 491 539 484L462 415Q460 413 460 409Q478 373 478 329Q478 256 432 192ZM155 242T186 211T262 179Q297 179 328 198T378 248T397 317Q397 363 367 394T292 426Q257 426 226 407T175 356T155 287Q155 242 186 211Z"></glyph><glyph unicode="¥" glyph-name="yen" d="M650 700T652 697T650 688L429 343Q427 338 430 338H535Q544 338 544 328L539 292Q539 288 536 285T528 282H400Q396 282 396 278L387 207Q387 203 391 203H519Q523 203 525 200T527 193L523 157Q521 147 512 147H384Q381 147 379 143L363 11Q361 1 352 1H279Q274 1 272 4T270 11L286 143Q286 147 283 147H153Q144 147 144 157L149 193Q151 203 160 203H290Q294 203 294 207L303 278Q303 282 299 282H169Q165 282 163 285T161 292L165 328Q166 332 169 335T176 338H283Q286 338 286 343L150 688L149 691Q149 700 159 700H238Q248 700 249 693L361 400Q362 398 364 398T367 400L553 693Q556 700 565 700H645Q650 700 652 697Z"></glyph><glyph unicode="¦" glyph-name="brokenbar" d="M70 399T72 409L113 750Q114 754 117 757T124 760H198Q207 760 207 750L165 409Q163 399 154 399H80Q70 399 72 409ZM11 -80T13 -70L55 271Q55 275 58 278T66 281H139Q148 281 148 271L106 -70Q104 -80 95 -80H21Q11 -80 13 -70Z"></glyph><glyph unicode="§" glyph-name="section" d="M107 -207T68 -170T29 -67Q29 -51 30 -42L32 -14Q34 -4 43 -4H117Q127 -4 125 -14L124 -28Q123 -35 123 -47Q123 -83 142 -104T193 -125Q229 -125 255 -100T286 -36Q287 -32 287 -24Q287 2 273 19T238 46T176 72Q133 89 107 106T67 154Q55 181 55 218Q55 254 65 285T94 340Q126 380 173 395Q179 397 174 400Q140 416 119 448T98 523Q98 571 123 613T194 681T294 707Q364 707 406 668T448 564Q448 550 447 543L444 523Q444 519 441 516T434 513H360Q351 513 351 523L353 534Q354 539 354 548Q354 582 335 603T283 625Q245 625 218 595T190 524Q190 488 216 467T292 428Q328 415 353 401T396 363Q420 331 420 280Q420 248 410 217T381 159Q349 112 304 102Q299 101 303 98Q379 57 379 -23Q379 -76 352 -118T279 -183T178 -207Q107 -207 68 -170ZM275 154T304 192Q314 207 320 227T326 268Q326 294 315 311Q294 344 249 344Q225 344 204 332T170 300Q149 273 149 228Q149 206 156 192Q178 154 225 154Q275 154 304 192Z"></glyph><glyph unicode="¨" glyph-name="dieresis" d="M292 593T277 608T262 647Q262 679 282 700T333 721Q357 721 372 706T387 665Q387 634 367 614T317 593Q292 593 277 608ZM116 593T101 608T86 647Q86 679 106 700T157 721Q181 721 196 706T211 665Q211 634 191 614T141 593Q116 593 101 608Z"></glyph><glyph unicode="©" glyph-name="copyright" d="M300 -8T230 31T121 141T82 301Q82 326 85 351Q97 452 152 533T293 661T479 708Q571 708 641 669T751 559T790 401Q790 377 787 351Q775 249 720 167T578 39T391 -8Q300 -8 230 31ZM481 58T550 96T665 201T720 351Q723 372 723 393Q723 465 692 521T603 610T471 642Q390 642 321 604T207 500T152 351Q149 329 149 308Q149 235 180 179T268 90T399 58Q481 58 550 96ZM369 172T343 196T316 263Q316 273 317 279L334 423Q340 471 374 500T459 529Q505 529 532 505T559 440Q559 431 558 426Q556 417 547 417H513Q504 417 504 427L505 436Q505 457 491 469T453 481Q427 481 410 467T389 427L370 274Q367 250 381 235T421 220Q447 220 465 235T486 274Q486 278 489 281T497 284H531Q541 284 539 275Q534 229 500 201T415 172Q369 172 343 196Z"></glyph><glyph unicode="ª" glyph-name="ordfeminine" d="M271 565Q274 565 276 569L278 589L279 600Q279 627 262 643T214 660Q188 660 168 649T141 618Q136 609 128 610L95 613Q85 615 87 624Q98 661 134 684T220 708Q273 708 303 682T334 611Q334 601 333 596L306 377Q306 373 303 370T295 367H260Q256 367 254 370T252 377L254 395Q255 397 254 397T250 396Q213 361 153 361Q109 361 82 381T55 441Q55 498 95 531T202 565H271ZM205 407T232 426T264 477L269 516Q269 520 266 520H204Q161 520 136 503T110 451Q110 407 168 407Q205 407 232 426ZM36 301T39 304T46 307H296Q306 307 304 297L299 253Q297 243 288 243H39Q34 243 32 246T30 253L35 297Q36 301 39 304Z"></glyph><glyph unicode="«" glyph-name="guillemotleft" d="M268 115T268 114Q268 111 266 109T259 107H186Q177 107 175 113L82 274Q81 276 81 280Q81 284 84 288L216 449Q221 455 229 455H301Q307 455 308 452T306 443L174 284Q171 281 173 278L266 119Q268 115 268 114ZM426 115T426 114Q426 111 424 109T417 107H344Q335 107 333 113L240 274Q239 276 239 280Q239 284 242 288L374 449Q379 455 387 455H459Q465 455 466 452T464 443L333 284Q330 281 332 278L424 119Q426 115 426 114Z"></glyph><glyph unicode="¬" glyph-name="logicalnot" d="M58 350T67 350H460Q469 350 469 340L446 160Q446 156 443 153T436 150H373Q369 150 367 153T365 160L378 263Q378 267 374 267H57Q47 267 49 277L56 340Q58 350 67 350Z"></glyph><glyph unicode="­" glyph-name="uni00AD" d="M52 264T50 267T48 274L56 337Q58 347 67 347H367Q371 347 373 344T375 337L367 274Q367 270 364 267T356 264H57Q52 264 50 267Z"></glyph><glyph unicode="®" glyph-name="registered" d="M335 712T374 690T435 630T457 544Q457 482 427 430T347 348T237 318Q188 318 149 340T88 402T66 491Q66 550 96 601T176 682T285 712Q335 712 374 690ZM284 362T320 382T381 438T411 518Q412 524 412 537Q412 594 375 631T280 668Q235 668 197 645T135 583T112 496Q112 437 148 400T242 362Q284 362 320 382ZM330 520T299 505Q295 501 296 499L313 437L314 434Q314 425 304 425H286Q276 425 275 433L261 496Q260 499 257 499H246Q244 499 243 498T241 495L234 435Q232 425 223 425H207Q203 425 201 428T199 435L219 596Q219 600 222 603T230 606H284Q306 606 318 593T330 558Q330 520 299 505ZM251 575T251 571L245 530Q245 526 249 526H269Q279 526 286 532T295 550V553Q295 575 275 575H255Q251 575 251 571Z"></glyph><glyph unicode="¯" glyph-name="overscore" d="M58 588T56 591T54 598L60 645Q62 655 71 655H321Q331 655 329 645L324 598Q322 588 313 588H62Q58 588 56 591Z"></glyph><glyph unicode="°" glyph-name="degree" d="M162 481T123 521T83 624Q83 673 108 715T174 783T263 808Q325 808 364 768T404 666Q404 616 379 574T313 506T223 481Q162 481 123 521ZM275 546T308 579T341 658Q341 696 317 720T255 745Q227 745 202 730T162 688T146 632Q146 595 170 571T231 546Q275 546 308 579Z"></glyph><glyph unicode="±" glyph-name="plusminus" d="M476 409T476 399L468 336Q466 326 457 326H305Q303 326 302 325T300 322L281 168Q281 164 278 161T270 158H209Q199 158 201 168L220 322Q220 326 216 326H64Q54 326 56 336L63 399Q65 409 74 409H227Q228 409 229 410T231 413L251 573Q251 577 254 580T261 583H323Q327 583 329 580T331 573L311 413Q311 409 315 409H467Q476 409 476 399ZM14 0T16 10L23 73Q25 83 34 83H427Q436 83 436 73L428 10Q426 0 417 0H24Q14 0 16 10Z"></glyph><glyph unicode="²" glyph-name="uni00B2" d="M66 433T68 443L73 482Q73 488 79 494Q133 547 226 644Q292 713 292 752Q292 774 277 787T236 801Q208 801 189 785T167 742L165 729Q163 719 154 719H109Q105 719 103 722T101 729L104 752Q112 800 150 829T243 858Q296 858 326 831T356 760Q356 730 340 698T290 629Q233 564 161 494Q160 492 161 491T164 489H325Q335 489 333 479L329 443Q327 433 318 433H76Q66 433 68 443Z"></glyph><glyph unicode="³" glyph-name="uni00B3" d="M334 619T334 592Q334 584 332 564Q328 526 310 495Q292 463 260 445T189 426Q146 426 118 449T81 510Q77 528 79 554Q79 558 82 561T89 564H134Q143 564 143 554V533Q143 529 145 521Q149 504 162 494T196 483Q232 483 251 514Q266 535 269 566Q270 573 270 586Q270 608 264 623Q252 653 216 653Q206 653 194 647Q192 646 189 646Q184 646 181 650L163 677Q162 679 162 682Q162 687 166 691L272 790Q274 791 274 793T271 795H124Q119 795 117 798T115 805L120 841Q120 845 123 848T131 851H354Q358 851 360 848T362 841L357 802Q357 798 351 790L257 698Q254 695 259 693Q309 686 327 637Q334 619 334 592Z"></glyph><glyph unicode="´" glyph-name="acute" d="M84 573T82 576T84 585L154 693Q158 700 167 700H232Q237 700 238 697T236 688L154 580Q147 573 141 573H90Q84 573 82 576Z"></glyph><glyph unicode="µ" glyph-name="uni00B5" d="M410 503T413 506T420 509H493Q502 509 502 499L442 10Q440 0 431 0H358Q349 0 349 10L354 45Q354 47 353 47T349 46Q304 -7 223 -7Q182 -7 147 8Q144 10 142 5L118 -190Q118 -194 115 -197T107 -200H34Q29 -200 27 -197T25 -190L110 499Q112 509 121 509H194Q199 509 201 506T203 499L162 169Q161 126 184 101T251 76Q300 76 332 106T371 188L409 499Q410 503 413 506Z"></glyph><glyph unicode="¶" glyph-name="paragraph" d="M557 700Q562 700 564 697T566 690L458 -190Q456 -200 447 -200H396Q392 -200 390 -197T388 -190L488 626Q488 630 485 630H370Q366 630 366 626L266 -190Q264 -200 255 -200H203Q199 -200 197 -197T195 -190L248 246Q250 250 245 250Q165 256 117 309T68 443Q68 453 70 475Q78 539 112 590T201 670T320 700H557Z"></glyph><glyph unicode="·" glyph-name="middot" d="M89 219T74 234T59 273Q59 305 79 326T130 347Q154 347 169 332T184 291Q184 260 164 240T114 219Q89 219 74 234Z"></glyph><glyph unicode="¸" glyph-name="cedilla" d="M-41 -178T-38 -169L-29 -136Q-28 -132 -25 -130T-16 -129Q-6 -132 4 -132Q25 -132 38 -120T52 -83Q52 -50 12 -12Q9 -9 9 -6Q9 0 17 0H57Q65 0 69 -4Q115 -47 115 -94Q115 -111 109 -127Q97 -160 71 -174T14 -188Q-10 -188 -33 -181Q-41 -178 -38 -169Z"></glyph><glyph unicode="¹" glyph-name="uni00B9" d="M164 853T171 853H218Q227 853 227 843L177 443Q177 439 174 436T166 433H123Q114 433 114 443L157 790Q157 793 153 793L110 787H108Q100 787 100 796L104 824Q106 833 113 836L159 851Q164 853 171 853Z"></glyph><glyph unicode="º" glyph-name="ordmasculine" d="M154 367T125 391T85 460Q80 480 80 501Q80 520 83 538Q88 582 103 616Q123 660 159 684T241 708Q284 708 313 684T353 617Q357 601 357 578Q357 559 354 539Q349 495 334 460Q314 416 278 392T198 367Q154 367 125 391ZM228 421T248 436T279 476Q289 501 294 538Q297 559 297 577Q297 612 280 633T233 654Q209 654 190 640T159 599Q147 573 144 538Q142 516 142 507Q142 492 144 476Q147 451 163 436T205 421Q228 421 248 436ZM37 243T39 253L44 299Q45 303 48 306T55 309H330Q340 309 338 299L333 253Q331 243 322 243H47Q37 243 39 253Z"></glyph><glyph unicode="»" glyph-name="guillemotright" d="M82 107T81 110T83 119L215 278Q217 281 215 284L123 443Q121 447 121 448Q121 455 131 455H203Q212 455 214 449L307 288Q308 286 308 282Q308 279 305 274L173 113Q168 107 161 107H88Q82 107 81 110ZM240 107T239 110T241 119L373 278Q375 281 373 284L281 443Q279 447 279 448Q279 455 289 455H361Q370 455 372 449L465 288Q466 286 466 282Q466 279 463 274L331 113Q326 107 319 107H246Q240 107 239 110Z"></glyph><glyph unicode="¼" glyph-name="onequarter" d="M145 700T152 700H199Q208 700 208 690L158 290Q158 286 155 283T147 280H104Q95 280 95 290L138 637Q138 640 134 640L91 634H89Q81 634 81 643L85 671Q87 680 94 683L140 698Q145 700 152 700ZM83 0T82 3T84 12L572 693Q577 700 584 700H633Q639 700 640 697T638 688L151 7Q146 0 138 0H89Q83 0 82 3ZM750 169T750 159L745 120Q743 110 734 110H715Q713 110 712 109T710 106L698 10Q698 6 695 3T687 0H643Q634 0 634 10L646 106Q646 110 643 110H470Q460 110 462 120L466 153Q466 158 470 165L610 412Q615 420 622 420H667Q672 420 674 417T674 408L542 174Q541 172 541 171T544 169H650Q654 169 654 173L664 254Q666 264 675 264H720Q730 264 728 254L718 173Q718 169 722 169H741Q750 169 750 159Z"></glyph><glyph unicode="½" glyph-name="onehalf" d="M145 700T152 700H199Q208 700 208 690L158 290Q158 286 155 283T147 280H104Q95 280 95 290L138 637Q138 640 134 640L91 634H89Q81 634 81 643L85 671Q87 680 94 683L140 698Q145 700 152 700ZM83 0T82 3T84 12L572 693Q577 700 584 700H633Q639 700 640 697T638 688L151 7Q146 0 138 0H89Q83 0 82 3ZM456 0T458 10L463 49Q463 55 469 61Q523 114 616 211Q682 280 682 319Q682 341 667 354T626 368Q598 368 579 352T557 309L555 296Q553 286 544 286H499Q495 286 493 289T491 296L494 319Q502 367 540 396T633 425Q686 425 716 398T746 327Q746 297 730 265T680 196Q623 131 551 61Q550 59 551 58T554 56H715Q725 56 723 46L719 10Q717 0 708 0H466Q456 0 458 10Z"></glyph><glyph unicode="¾" glyph-name="threequarters" d="M316 473T316 446Q316 438 314 418Q310 380 292 349Q274 317 242 299T171 280Q128 280 100 303T63 364Q59 382 61 408Q61 412 64 415T71 418H116Q125 418 125 408V387Q125 383 127 375Q131 358 144 348T178 337Q214 337 233 368Q248 389 251 420Q252 427 252 440Q252 462 246 477Q234 507 198 507Q188 507 176 501Q174 500 171 500Q166 500 163 504L145 531Q144 533 144 536Q144 541 148 545L254 644Q256 645 256 647T253 649H106Q101 649 99 652T97 659L102 695Q102 699 105 702T113 705H336Q340 705 342 702T344 695L339 656Q339 652 333 644L239 552Q236 549 241 547Q291 540 309 491Q316 473 316 446ZM177 0T176 3T178 12L666 693Q671 700 678 700H727Q733 700 734 697T732 688L245 7Q240 0 232 0H183Q177 0 176 3ZM843 169T843 159L838 120Q836 110 827 110H808Q806 110 805 109T803 106L791 10Q791 6 788 3T780 0H736Q727 0 727 10L739 106Q739 110 736 110H563Q553 110 555 120L559 153Q559 158 563 165L703 412Q708 420 715 420H760Q765 420 767 417T767 408L635 174Q634 172 634 171T637 169H743Q747 169 747 173L757 254Q759 264 768 264H813Q823 264 821 254L811 173Q811 169 815 169H834Q843 169 843 159Z"></glyph><glyph unicode="¿" glyph-name="questiondown" d="M320 499T335 484T350 445Q350 414 329 393T279 371Q255 371 240 386T225 426Q225 457 245 478T295 499Q320 499 335 484ZM309 292T311 289T313 282L307 232Q302 187 276 158T203 96Q171 73 153 57T121 16T108 -40Q108 -78 132 -100T199 -122Q247 -122 280 -94T318 -22L322 4Q322 8 325 11T332 14L406 10Q416 10 414 0L411 -22Q405 -77 374 -119T295 -185T187 -209Q106 -209 59 -167T12 -53Q12 -45 14 -27Q20 17 38 49T79 101T137 146Q174 171 192 190T214 237L220 282Q222 292 231 292H305Q309 292 311 289Z"></glyph><glyph unicode="À" glyph-name="Agrave" d="M469 0T466 2T462 8L441 125Q441 128 438 128H165Q162 128 161 125L112 8Q107 0 99 0H20Q15 0 14 3T14 11L310 692Q315 700 323 700H420Q423 700 426 698T430 692L561 11V9Q561 0 552 0H472Q469 0 466 2ZM194 207T195 206T199 204H422Q424 204 425 205T426 209L359 580Q359 582 357 582T353 580L195 209Q194 207 195 206ZM417 775T417 772Q417 768 414 766T406 764H354Q348 764 343 771L289 879Q288 881 288 885Q288 891 296 891H361Q369 891 372 884L416 776Q417 775 417 772Z"></glyph><glyph unicode="Á" glyph-name="Aacute" d="M469 0T466 2T462 8L441 125Q441 128 438 128H165Q162 128 161 125L112 8Q107 0 99 0H20Q15 0 14 3T14 11L310 692Q315 700 323 700H420Q423 700 426 698T430 692L561 11V9Q561 0 552 0H472Q469 0 466 2ZM194 207T195 206T199 204H422Q424 204 425 205T426 209L359 580Q359 582 357 582T353 580L195 209Q194 207 195 206ZM333 764T331 767T333 776L403 884Q407 891 416 891H481Q486 891 487 888T485 879L403 771Q396 764 390 764H339Q333 764 331 767Z"></glyph><glyph unicode="Â" glyph-name="Acircumflex" d="M469 0T466 2T462 8L441 125Q441 128 438 128H165Q162 128 161 125L112 8Q107 0 99 0H20Q15 0 14 3T14 11L310 692Q315 700 323 700H420Q423 700 426 698T430 692L561 11V9Q561 0 552 0H472Q469 0 466 2ZM194 207T195 206T199 204H422Q424 204 425 205T426 209L359 580Q359 582 357 582T353 580L195 209Q194 207 195 206ZM247 764T246 767T248 776L338 885Q343 891 352 891H434Q444 891 446 885L509 776L511 771Q511 764 502 764H445Q436 764 434 770L392 846Q391 848 389 848T386 846L323 770Q319 764 311 764H253Q247 764 246 767Z"></glyph><glyph unicode="Ã" glyph-name="Atilde" d="M469 0T466 2T462 8L441 125Q441 128 438 128H165Q162 128 161 125L112 8Q107 0 99 0H20Q15 0 14 3T14 11L310 692Q315 700 323 700H420Q423 700 426 698T430 692L561 11V9Q561 0 552 0H472Q469 0 466 2ZM194 207T195 206T199 204H422Q424 204 425 205T426 209L359 580Q359 582 357 582T353 580L195 209Q194 207 195 206ZM423 784T410 789T382 804Q365 814 357 818T337 822Q305 822 283 800L279 796Q273 790 267 796L243 824Q238 831 243 838Q262 864 287 878T341 892Q357 892 369 888T390 877T404 869Q408 867 417 861T434 853T450 850Q481 850 504 877Q510 887 518 879L538 851Q541 847 541 845T539 837Q524 812 498 798T442 784Q423 784 410 789Z"></glyph><glyph unicode="Ä" glyph-name="Adieresis" d="M469 0T466 2T462 8L441 125Q441 128 438 128H165Q162 128 161 125L112 8Q107 0 99 0H20Q15 0 14 3T14 11L310 692Q315 700 323 700H420Q423 700 426 698T430 692L561 11V9Q561 0 552 0H472Q469 0 466 2ZM194 207T195 206T199 204H422Q424 204 425 205T426 209L359 580Q359 582 357 582T353 580L195 209Q194 207 195 206ZM444 784T429 799T414 838Q414 870 434 891T485 912Q509 912 524 897T539 856Q539 825 519 805T469 784Q444 784 429 799ZM268 784T253 799T238 838Q238 870 258 891T309 912Q333 912 348 897T363 856Q363 825 343 805T293 784Q268 784 253 799Z"></glyph><glyph unicode="Å" glyph-name="Aring" d="M469 0T466 2T462 8L441 125Q441 128 438 128H165Q162 128 161 125L112 8Q107 0 99 0H20Q15 0 14 3T14 11L310 692Q315 700 323 700H420Q423 700 426 698T430 692L561 11V9Q561 0 552 0H472Q469 0 466 2ZM194 207T195 206T199 204H422Q424 204 425 205T426 209L359 580Q359 582 357 582T353 580L195 209Q194 207 195 206ZM335 764T307 792T279 863Q279 898 296 927T343 974T406 991Q449 991 476 964T504 893Q504 858 487 829T441 782T378 764Q335 764 307 792ZM410 818T430 838T451 885Q451 908 437 923T399 938Q373 938 353 918T333 869Q333 847 347 833T384 818Q410 818 430 838Z"></glyph><glyph unicode="Æ" glyph-name="AE" d="M913 617T904 617H580Q576 617 576 613L549 398Q549 394 553 394H769Q778 394 778 384L770 321Q768 311 759 311H543Q541 311 540 310T538 307L511 87Q511 83 515 83H839Q843 83 845 80T847 73L839 10Q839 6 836 3T828 0H417Q407 0 409 10L423 124Q423 128 419 128H194Q192 128 190 125L116 7Q113 0 104 0H21Q16 0 15 3T16 12L442 693Q446 700 455 700H914Q919 700 921 697T923 690L915 627Q913 617 904 617ZM239 204T243 204H429Q433 204 433 208L479 584Q480 587 478 587T474 585L241 209Q239 204 243 204Z"></glyph><glyph unicode="Ç" glyph-name="Ccedilla" d="M573 480T570 478T563 475L489 471Q479 471 480 480V483Q482 499 482 506Q482 560 448 592T355 625Q291 625 247 586T194 483L161 217Q160 210 160 196Q160 141 194 108T288 75Q352 75 396 114T448 217V219Q450 228 459 228L532 224Q542 224 540 214Q529 118 462 57T293 -9Q288 -9 290 -14Q324 -49 324 -90Q324 -109 318 -125Q306 -158 281 -172T224 -186Q200 -186 177 -179Q169 -176 172 -167L180 -134Q183 -124 193 -127Q204 -130 213 -130Q234 -130 247 -118T261 -81Q261 -43 214 -4Q213 -2 212 -2T210 -1Q142 16 105 65T67 187Q67 197 69 221L101 480Q109 548 145 599T238 679T365 708Q462 708 519 657T576 519Q576 509 574 487L573 482Q573 480 570 478Z"></glyph><glyph unicode="È" glyph-name="Egrave" d="M586 617T577 617H233Q229 617 229 613L202 398Q202 394 206 394H442Q451 394 451 384L443 321Q441 311 432 311H195Q191 311 191 307L164 87Q164 83 167 83H512Q522 83 520 73L512 10Q512 6 509 3T501 0H70Q61 0 61 10L145 690Q147 700 156 700H587Q592 700 594 697T596 690L588 627Q586 617 577 617ZM415 775T415 772Q415 768 412 766T404 764H352Q346 764 341 771L287 879Q286 881 286 885Q286 891 294 891H359Q367 891 370 884L414 776Q415 775 415 772Z"></glyph><glyph unicode="É" glyph-name="Eacute" d="M586 617T577 617H233Q229 617 229 613L202 398Q202 394 206 394H442Q451 394 451 384L443 321Q441 311 432 311H195Q191 311 191 307L164 87Q164 83 167 83H512Q522 83 520 73L512 10Q512 6 509 3T501 0H70Q61 0 61 10L145 690Q147 700 156 700H587Q592 700 594 697T596 690L588 627Q586 617 577 617ZM330 764T328 767T330 776L400 884Q404 891 413 891H478Q483 891 484 888T482 879L400 771Q393 764 387 764H336Q330 764 328 767Z"></glyph><glyph unicode="Ê" glyph-name="Ecircumflex" d="M586 617T577 617H233Q229 617 229 613L202 398Q202 394 206 394H442Q451 394 451 384L443 321Q441 311 432 311H195Q191 311 191 307L164 87Q164 83 167 83H512Q522 83 520 73L512 10Q512 6 509 3T501 0H70Q61 0 61 10L145 690Q147 700 156 700H587Q592 700 594 697T596 690L588 627Q586 617 577 617ZM245 764T244 767T246 776L336 885Q341 891 350 891H432Q442 891 444 885L507 776L509 771Q509 764 500 764H443Q434 764 432 770L390 846Q389 848 387 848T384 846L321 770Q317 764 309 764H251Q245 764 244 767Z"></glyph><glyph unicode="Ë" glyph-name="Edieresis" d="M586 617T577 617H233Q229 617 229 613L202 398Q202 394 206 394H442Q451 394 451 384L443 321Q441 311 432 311H195Q191 311 191 307L164 87Q164 83 167 83H512Q522 83 520 73L512 10Q512 6 509 3T501 0H70Q61 0 61 10L145 690Q147 700 156 700H587Q592 700 594 697T596 690L588 627Q586 617 577 617ZM442 784T427 799T412 838Q412 870 432 891T483 912Q507 912 522 897T537 856Q537 825 517 805T467 784Q442 784 427 799ZM266 784T251 799T236 838Q236 870 256 891T307 912Q331 912 346 897T361 856Q361 825 341 805T291 784Q266 784 251 799Z"></glyph><glyph unicode="Ì" glyph-name="Igrave" d="M61 0T61 10L145 690Q147 700 156 700H230Q234 700 236 697T238 690L154 10Q154 6 151 3T144 0H70Q61 0 61 10ZM239 775T239 772Q239 768 236 766T228 764H176Q170 764 165 771L111 879Q110 881 110 885Q110 891 118 891H183Q191 891 194 884L238 776Q239 775 239 772Z"></glyph><glyph unicode="Í" glyph-name="Iacute" d="M61 0T61 10L145 690Q147 700 156 700H230Q234 700 236 697T238 690L154 10Q154 6 151 3T144 0H70Q61 0 61 10ZM155 764T153 767T155 776L225 884Q229 891 238 891H303Q308 891 309 888T307 879L225 771Q218 764 212 764H161Q155 764 153 767Z"></glyph><glyph unicode="Î" glyph-name="Icircumflex" d="M61 0T61 10L145 690Q147 700 156 700H230Q234 700 236 697T238 690L154 10Q154 6 151 3T144 0H70Q61 0 61 10ZM70 764T69 767T71 776L161 885Q166 891 175 891H257Q267 891 269 885L332 776L334 771Q334 764 325 764H268Q259 764 257 770L215 846Q214 848 212 848T209 846L146 770Q142 764 134 764H76Q70 764 69 767Z"></glyph><glyph unicode="Ï" glyph-name="Idieresis" d="M61 0T61 10L145 690Q147 700 156 700H230Q234 700 236 697T238 690L154 10Q154 6 151 3T144 0H70Q61 0 61 10ZM267 784T252 799T237 838Q237 870 257 891T308 912Q332 912 347 897T362 856Q362 825 342 805T292 784Q267 784 252 799ZM91 784T76 799T61 838Q61 870 81 891T132 912Q156 912 171 897T186 856Q186 825 166 805T116 784Q91 784 76 799Z"></glyph><glyph unicode="Ð" glyph-name="Eth" d="M542 700T595 654T648 529Q648 520 646 500L609 200Q598 109 531 55T363 0H129Q119 0 121 10L159 325Q159 329 156 329H110Q100 329 102 339L108 387Q108 391 111 394T119 397H164Q167 397 169 401L204 690Q206 700 215 700H449Q542 700 595 654ZM551 486Q552 494 552 509Q552 559 523 588T442 617H292Q288 617 288 613L262 401Q261 400 262 399T265 397H367Q377 397 375 387L369 339Q369 335 366 332T359 329H257Q254 329 252 325L223 87Q223 83 227 83H377Q434 83 472 118T518 214L551 486Z"></glyph><glyph unicode="Ñ" glyph-name="Ntilde" d="M545 694T548 697T555 700H629Q638 700 638 690L554 10Q552 0 543 0H472Q466 0 462 7L221 518Q220 521 218 521T216 517L154 10Q154 6 151 3T144 0H70Q61 0 61 10L145 690Q147 700 156 700H228Q235 700 238 693L478 182Q479 179 481 179T483 183L545 690Q545 694 548 697ZM442 784T429 789T401 804Q384 814 376 818T356 822Q324 822 302 800L298 796Q292 790 286 796L262 824Q257 831 262 838Q281 864 306 878T360 892Q376 892 388 888T409 877T423 869Q427 867 436 861T453 853T469 850Q500 850 523 877Q529 887 537 879L557 851Q560 847 560 845T558 837Q543 812 517 798T461 784Q442 784 429 789Z"></glyph><glyph unicode="Ò" glyph-name="Ograve" d="M183 -9T126 46T68 194Q68 218 70 231L99 469Q108 540 144 594T239 678T368 708Q466 708 523 653T581 506Q581 482 579 469L550 231Q542 160 505 106T410 21T280 -9Q183 -9 126 46ZM357 74T402 116T457 227L486 470Q488 488 488 496Q488 555 453 590T358 625Q293 625 247 583T193 470L163 227Q161 209 161 201Q161 143 196 109T290 74Q357 74 402 116ZM414 775T414 772Q414 768 411 766T403 764H351Q345 764 340 771L286 879Q285 881 285 885Q285 891 293 891H358Q366 891 369 884L413 776Q414 775 414 772Z"></glyph><glyph unicode="Ó" glyph-name="Oacute" d="M183 -9T126 46T68 194Q68 218 70 231L99 469Q108 540 144 594T239 678T368 708Q466 708 523 653T581 506Q581 482 579 469L550 231Q542 160 505 106T410 21T280 -9Q183 -9 126 46ZM357 74T402 116T457 227L486 470Q488 488 488 496Q488 555 453 590T358 625Q293 625 247 583T193 470L163 227Q161 209 161 201Q161 143 196 109T290 74Q357 74 402 116ZM329 764T327 767T329 776L399 884Q403 891 412 891H477Q482 891 483 888T481 879L399 771Q392 764 386 764H335Q329 764 327 767Z"></glyph><glyph unicode="Ô" glyph-name="Ocircumflex" d="M183 -9T126 46T68 194Q68 218 70 231L99 469Q108 540 144 594T239 678T368 708Q466 708 523 653T581 506Q581 482 579 469L550 231Q542 160 505 106T410 21T280 -9Q183 -9 126 46ZM357 74T402 116T457 227L486 470Q488 488 488 496Q488 555 453 590T358 625Q293 625 247 583T193 470L163 227Q161 209 161 201Q161 143 196 109T290 74Q357 74 402 116ZM244 764T243 767T245 776L335 885Q340 891 349 891H431Q441 891 443 885L506 776L508 771Q508 764 499 764H442Q433 764 431 770L389 846Q388 848 386 848T383 846L320 770Q316 764 308 764H250Q244 764 243 767Z"></glyph><glyph unicode="Õ" glyph-name="Otilde" d="M183 -9T126 46T68 194Q68 218 70 231L99 469Q108 540 144 594T239 678T368 708Q466 708 523 653T581 506Q581 482 579 469L550 231Q542 160 505 106T410 21T280 -9Q183 -9 126 46ZM357 74T402 116T457 227L486 470Q488 488 488 496Q488 555 453 590T358 625Q293 625 247 583T193 470L163 227Q161 209 161 201Q161 143 196 109T290 74Q357 74 402 116ZM420 784T407 789T379 804Q362 814 354 818T334 822Q302 822 280 800L276 796Q270 790 264 796L240 824Q235 831 240 838Q259 864 284 878T338 892Q354 892 366 888T387 877T401 869Q405 867 414 861T431 853T447 850Q478 850 501 877Q507 887 515 879L535 851Q538 847 538 845T536 837Q521 812 495 798T439 784Q420 784 407 789Z"></glyph><glyph unicode="Ö" glyph-name="Odieresis" d="M183 -9T126 46T68 194Q68 218 70 231L99 469Q108 540 144 594T239 678T368 708Q466 708 523 653T581 506Q581 482 579 469L550 231Q542 160 505 106T410 21T280 -9Q183 -9 126 46ZM357 74T402 116T457 227L486 470Q488 488 488 496Q488 555 453 590T358 625Q293 625 247 583T193 470L163 227Q161 209 161 201Q161 143 196 109T290 74Q357 74 402 116ZM441 784T426 799T411 838Q411 870 431 891T482 912Q506 912 521 897T536 856Q536 825 516 805T466 784Q441 784 426 799ZM265 784T250 799T235 838Q235 870 255 891T306 912Q330 912 345 897T360 856Q360 825 340 805T290 784Q265 784 250 799Z"></glyph><glyph unicode="×" glyph-name="multiply" d="M414 441T414 440Q414 435 410 431L289 320Q285 317 288 314L380 205Q382 203 382 199Q382 194 378 191L330 147Q327 144 323 144T317 147L224 256Q222 259 219 256L97 145Q94 142 90 142T84 145L46 189Q44 193 44 194Q44 199 48 203L170 314Q173 317 170 320L75 433Q72 436 72 439Q72 443 76 447L124 491Q132 497 138 491L234 378Q236 375 239 378L361 489Q364 492 368 492T374 489L412 445Q414 441 414 440Z"></glyph><glyph unicode="Ø" glyph-name="Oslash" d="M629 681T624 673L567 599Q566 597 566 593Q582 557 582 507Q582 482 580 469L551 231Q543 160 506 106T411 21T281 -9Q195 -9 140 34Q136 36 135 33L90 -26Q83 -34 77 -29L24 8Q17 14 23 21L83 101Q83 102 84 103T84 107Q69 145 69 193Q69 218 71 231L100 469Q109 540 145 594T240 678T369 708Q456 708 511 665Q515 663 516 666L560 724Q563 728 567 729T574 727L623 687Q629 681 624 673ZM162 217T162 212Q161 209 163 209T167 211L454 585Q456 588 454 590Q417 625 359 625Q293 625 248 583T194 470L164 227Q162 217 162 212ZM489 482T489 489Q487 496 484 491L197 114Q195 111 197 109Q232 74 291 74Q358 74 403 116T458 227L487 470Q489 482 489 489Z"></glyph><glyph unicode="Ù" glyph-name="Ugrave" d="M193 -8T136 45T79 188Q79 198 81 222L138 690Q140 700 149 700H223Q233 700 231 690L173 220Q172 213 172 199Q172 143 207 109T301 75Q366 75 411 115T464 220L521 690Q523 700 532 700H606Q616 700 614 690L557 222Q549 154 513 102T420 21T291 -8Q193 -8 136 45ZM424 775T424 772Q424 768 421 766T413 764H361Q355 764 350 771L296 879Q295 881 295 885Q295 891 303 891H368Q376 891 379 884L423 776Q424 775 424 772Z"></glyph><glyph unicode="Ú" glyph-name="Uacute" d="M193 -8T136 45T79 188Q79 198 81 222L138 690Q140 700 149 700H223Q233 700 231 690L173 220Q172 213 172 199Q172 143 207 109T301 75Q366 75 411 115T464 220L521 690Q523 700 532 700H606Q616 700 614 690L557 222Q549 154 513 102T420 21T291 -8Q193 -8 136 45ZM340 764T338 767T340 776L410 884Q414 891 423 891H488Q493 891 494 888T492 879L410 771Q403 764 397 764H346Q340 764 338 767Z"></glyph><glyph unicode="Û" glyph-name="Ucircumflex" d="M193 -8T136 45T79 188Q79 198 81 222L138 690Q140 700 149 700H223Q233 700 231 690L173 220Q172 213 172 199Q172 143 207 109T301 75Q366 75 411 115T464 220L521 690Q523 700 532 700H606Q616 700 614 690L557 222Q549 154 513 102T420 21T291 -8Q193 -8 136 45ZM254 764T253 767T255 776L345 885Q350 891 359 891H441Q451 891 453 885L516 776L518 771Q518 764 509 764H452Q443 764 441 770L399 846Q398 848 396 848T393 846L330 770Q326 764 318 764H260Q254 764 253 767Z"></glyph><glyph unicode="Ü" glyph-name="Udieresis" d="M193 -8T136 45T79 188Q79 198 81 222L138 690Q140 700 149 700H223Q233 700 231 690L173 220Q172 213 172 199Q172 143 207 109T301 75Q366 75 411 115T464 220L521 690Q523 700 532 700H606Q616 700 614 690L557 222Q549 154 513 102T420 21T291 -8Q193 -8 136 45ZM451 784T436 799T421 838Q421 870 441 891T492 912Q516 912 531 897T546 856Q546 825 526 805T476 784Q451 784 436 799ZM275 784T260 799T245 838Q245 870 265 891T316 912Q340 912 355 897T370 856Q370 825 350 805T300 784Q275 784 260 799Z"></glyph><glyph unicode="Ý" glyph-name="Yacute" d="M217 1T219 11L253 292Q253 293 253 294T253 297L99 688L98 692Q98 700 107 700H187Q195 700 198 693L310 400Q311 398 313 398T316 400L500 693Q504 700 513 700H593Q598 700 600 697T599 688L348 297Q346 295 346 292L312 11Q310 1 301 1H227Q217 1 219 11ZM312 764T310 767T312 776L382 884Q386 891 395 891H460Q465 891 466 888T464 879L382 771Q375 764 369 764H318Q312 764 310 767Z"></glyph><glyph unicode="Þ" glyph-name="Thorn" d="M454 550T501 504T549 380Q549 371 547 349Q540 290 508 245T427 175T320 150H170Q167 150 165 146L149 10Q147 0 138 0H64Q54 0 56 10L139 690Q141 700 150 700H224Q234 700 232 690L215 554Q215 550 219 550H373Q454 550 501 504ZM380 229T417 266T455 366Q455 413 427 439T350 466H209Q207 466 206 465T204 462L176 233Q176 229 179 229H321Q380 229 417 266Z"></glyph><glyph unicode="ß" glyph-name="germandbls" d="M49 0T51 10L111 501Q123 599 184 654T343 709Q429 709 480 665T531 545Q531 529 530 521Q524 470 499 434T432 378Q427 376 432 373Q464 356 482 320T501 233Q501 224 499 200Q487 105 422 53T248 0H198Q189 0 189 10L197 72Q199 82 208 82H267Q331 82 370 122T409 233Q409 281 382 308T309 336H258Q253 336 251 339T249 346L256 402Q258 412 267 412H318Q371 412 404 445T437 534Q437 576 412 601T338 626Q286 626 249 595T205 509L144 10Q142 0 133 0H59Q49 0 51 10Z"></glyph><glyph unicode="à" glyph-name="agrave" d="M418 509T427 509H501Q511 509 509 499L449 10Q449 6 446 3T438 0H365Q356 0 356 10L363 66Q364 69 362 69T359 67Q307 -8 219 -8Q155 -8 112 31T60 135Q58 157 58 168Q58 196 65 254Q70 297 76 327T94 383Q117 442 169 479T288 517Q376 517 405 446Q406 443 407 443T410 447L416 499Q418 509 427 509ZM373 174T377 192T386 253Q392 295 392 324Q392 334 390 352Q385 388 362 411T299 434Q258 434 227 411T183 351Q176 336 172 318T162 255Q156 203 156 186Q156 172 159 158Q162 121 188 98T255 75Q295 75 323 98T366 158Q373 174 377 192ZM340 584T340 581Q340 577 337 575T329 573H277Q271 573 266 580L212 688Q211 690 211 694Q211 700 219 700H284Q292 700 295 693L339 585Q340 584 340 581Z"></glyph><glyph unicode="á" glyph-name="aacute" d="M418 509T427 509H501Q511 509 509 499L449 10Q449 6 446 3T438 0H365Q356 0 356 10L363 66Q364 69 362 69T359 67Q307 -8 219 -8Q155 -8 112 31T60 135Q58 157 58 168Q58 196 65 254Q70 297 76 327T94 383Q117 442 169 479T288 517Q376 517 405 446Q406 443 407 443T410 447L416 499Q418 509 427 509ZM373 174T377 192T386 253Q392 295 392 324Q392 334 390 352Q385 388 362 411T299 434Q258 434 227 411T183 351Q176 336 172 318T162 255Q156 203 156 186Q156 172 159 158Q162 121 188 98T255 75Q295 75 323 98T366 158Q373 174 377 192ZM256 573T254 576T256 585L326 693Q330 700 339 700H404Q409 700 410 697T408 688L326 580Q319 573 313 573H262Q256 573 254 576Z"></glyph><glyph unicode="â" glyph-name="acircumflex" d="M418 509T427 509H501Q511 509 509 499L449 10Q449 6 446 3T438 0H365Q356 0 356 10L363 66Q364 69 362 69T359 67Q307 -8 219 -8Q155 -8 112 31T60 135Q58 157 58 168Q58 196 65 254Q70 297 76 327T94 383Q117 442 169 479T288 517Q376 517 405 446Q406 443 407 443T410 447L416 499Q418 509 427 509ZM373 174T377 192T386 253Q392 295 392 324Q392 334 390 352Q385 388 362 411T299 434Q258 434 227 411T183 351Q176 336 172 318T162 255Q156 203 156 186Q156 172 159 158Q162 121 188 98T255 75Q295 75 323 98T366 158Q373 174 377 192ZM171 573T170 576T172 585L262 694Q267 700 276 700H358Q368 700 370 694L433 585L435 580Q435 573 426 573H369Q360 573 358 579L316 655Q315 657 313 657T310 655L247 579Q243 573 235 573H177Q171 573 170 576Z"></glyph><glyph unicode="ã" glyph-name="atilde" d="M418 509T427 509H501Q511 509 509 499L449 10Q449 6 446 3T438 0H365Q356 0 356 10L363 66Q364 69 362 69T359 67Q307 -8 219 -8Q155 -8 112 31T60 135Q58 157 58 168Q58 196 65 254Q70 297 76 327T94 383Q117 442 169 479T288 517Q376 517 405 446Q406 443 407 443T410 447L416 499Q418 509 427 509ZM373 174T377 192T386 253Q392 295 392 324Q392 334 390 352Q385 388 362 411T299 434Q258 434 227 411T183 351Q176 336 172 318T162 255Q156 203 156 186Q156 172 159 158Q162 121 188 98T255 75Q295 75 323 98T366 158Q373 174 377 192ZM346 593T333 598T305 613Q288 623 280 627T260 631Q228 631 206 609L202 605Q196 599 190 605L166 633Q161 640 166 647Q185 673 210 687T264 701Q280 701 292 697T313 686T327 678Q331 676 340 670T357 662T373 659Q404 659 427 686Q433 696 441 688L461 660Q464 656 464 654T462 646Q447 621 421 607T365 593Q346 593 333 598Z"></glyph><glyph unicode="ä" glyph-name="adieresis" d="M418 509T427 509H501Q511 509 509 499L449 10Q449 6 446 3T438 0H365Q356 0 356 10L363 66Q364 69 362 69T359 67Q307 -8 219 -8Q155 -8 112 31T60 135Q58 157 58 168Q58 196 65 254Q70 297 76 327T94 383Q117 442 169 479T288 517Q376 517 405 446Q406 443 407 443T410 447L416 499Q418 509 427 509ZM373 174T377 192T386 253Q392 295 392 324Q392 334 390 352Q385 388 362 411T299 434Q258 434 227 411T183 351Q176 336 172 318T162 255Q156 203 156 186Q156 172 159 158Q162 121 188 98T255 75Q295 75 323 98T366 158Q373 174 377 192ZM367 593T352 608T337 647Q337 679 357 700T408 721Q432 721 447 706T462 665Q462 634 442 614T392 593Q367 593 352 608ZM191 593T176 608T161 647Q161 679 181 700T232 721Q256 721 271 706T286 665Q286 634 266 614T216 593Q191 593 176 608Z"></glyph><glyph unicode="å" glyph-name="aring" d="M418 509T427 509H501Q511 509 509 499L449 10Q449 6 446 3T438 0H365Q356 0 356 10L363 66Q364 69 362 69T359 67Q307 -8 219 -8Q155 -8 112 31T60 135Q58 157 58 168Q58 196 65 254Q70 297 76 327T94 383Q117 442 169 479T288 517Q376 517 405 446Q406 443 407 443T410 447L416 499Q418 509 427 509ZM373 174T377 192T386 253Q392 295 392 324Q392 334 390 352Q385 388 362 411T299 434Q258 434 227 411T183 351Q176 336 172 318T162 255Q156 203 156 186Q156 172 159 158Q162 121 188 98T255 75Q295 75 323 98T366 158Q373 174 377 192ZM258 573T230 601T202 672Q202 707 219 736T266 783T329 800Q372 800 399 773T427 702Q427 667 410 638T364 591T301 573Q258 573 230 601ZM333 627T353 647T374 694Q374 717 360 732T322 747Q296 747 276 727T256 678Q256 656 270 642T307 627Q333 627 353 647Z"></glyph><glyph unicode="æ" glyph-name="ae" d="M122 -8T78 21T33 113Q33 196 93 247T255 298H363Q365 298 366 299T368 302L372 334Q373 340 373 351Q373 389 350 411T280 434Q241 434 213 418T174 373Q170 363 161 364L89 375Q80 377 81 386Q96 443 154 480T288 517Q342 517 382 493T435 434Q437 429 440 434Q462 467 507 492T601 517Q667 517 716 479T775 375Q777 357 777 345Q777 308 767 227Q765 217 756 217H456Q452 217 452 213Q451 202 451 194T449 174Q447 129 478 106T562 82Q604 82 632 97T680 145Q683 149 687 149T694 148L739 116Q747 110 741 103Q714 56 660 24T538 -8Q486 -8 446 14T390 71Q386 75 385 72Q357 35 306 14T195 -8Q122 -8 78 21ZM462 298T465 298H680Q684 298 684 302Q685 315 685 337Q685 379 659 406T589 434Q548 434 517 410T472 348Q467 332 462 302Q462 298 465 298ZM266 68T306 94T352 169L357 213Q357 215 356 216T354 217H261Q199 217 163 196T127 132Q127 102 151 85T215 68Q266 68 306 94Z"></glyph><glyph unicode="ç" glyph-name="ccedilla" d="M378 163Q378 166 379 167Q380 171 383 172T390 173L461 161Q469 159 468 153Q468 150 467 149Q466 144 460 127Q438 73 390 38T278 -6Q272 -8 276 -11Q312 -48 312 -90Q312 -107 306 -125Q293 -158 268 -172T212 -186Q185 -186 164 -178Q156 -175 159 -166L168 -133Q171 -123 181 -126Q192 -129 201 -129Q221 -129 235 -117T249 -81Q249 -46 206 -6Q205 -4 202 -4Q146 6 111 43T65 135Q61 158 61 190Q61 224 65 256Q74 328 95 377Q121 441 179 479T310 517Q383 517 432 479T491 383Q495 366 495 350Q494 341 485 340L411 329H409Q401 329 401 338L399 354Q396 388 369 411T299 434Q256 434 225 411T180 350Q168 321 159 255Q155 222 155 193Q155 179 157 161Q162 121 187 98T255 75Q297 75 330 98T376 158L378 163Z"></glyph><glyph unicode="è" glyph-name="egrave" d="M487 290T479 226Q478 216 468 216H158Q154 216 154 212Q152 188 152 180Q152 170 154 160Q159 120 188 98T268 75Q339 75 386 136Q392 146 399 139L450 101Q456 95 451 88Q418 42 365 17T249 -9Q178 -9 134 22T72 114Q62 148 62 194Q62 213 66 257Q71 295 76 321T91 368Q117 437 174 477T306 517Q402 517 444 468T487 325Q487 290 479 226ZM254 434T225 413T180 355Q171 333 165 299Q164 295 168 295H390Q394 295 394 299Q396 323 396 331Q396 377 370 405T296 434Q254 434 225 413ZM349 584T349 581Q349 577 346 575T338 573H286Q280 573 275 580L221 688Q220 690 220 694Q220 700 228 700H293Q301 700 304 693L348 585Q349 584 349 581Z"></glyph><glyph unicode="é" glyph-name="eacute" d="M487 290T479 226Q478 216 468 216H158Q154 216 154 212Q152 188 152 180Q152 170 154 160Q159 120 188 98T268 75Q339 75 386 136Q392 146 399 139L450 101Q456 95 451 88Q418 42 365 17T249 -9Q178 -9 134 22T72 114Q62 148 62 194Q62 213 66 257Q71 295 76 321T91 368Q117 437 174 477T306 517Q402 517 444 468T487 325Q487 290 479 226ZM254 434T225 413T180 355Q171 333 165 299Q164 295 168 295H390Q394 295 394 299Q396 323 396 331Q396 377 370 405T296 434Q254 434 225 413ZM265 573T263 576T265 585L335 693Q339 700 348 700H413Q418 700 419 697T417 688L335 580Q328 573 322 573H271Q265 573 263 576Z"></glyph><glyph unicode="ê" glyph-name="ecircumflex" d="M487 290T479 226Q478 216 468 216H158Q154 216 154 212Q152 188 152 180Q152 170 154 160Q159 120 188 98T268 75Q339 75 386 136Q392 146 399 139L450 101Q456 95 451 88Q418 42 365 17T249 -9Q178 -9 134 22T72 114Q62 148 62 194Q62 213 66 257Q71 295 76 321T91 368Q117 437 174 477T306 517Q402 517 444 468T487 325Q487 290 479 226ZM254 434T225 413T180 355Q171 333 165 299Q164 295 168 295H390Q394 295 394 299Q396 323 396 331Q396 377 370 405T296 434Q254 434 225 413ZM180 573T179 576T181 585L271 694Q276 700 285 700H367Q377 700 379 694L442 585L444 580Q444 573 435 573H378Q369 573 367 579L325 655Q324 657 322 657T319 655L256 579Q252 573 244 573H186Q180 573 179 576Z"></glyph><glyph unicode="ë" glyph-name="edieresis" d="M487 290T479 226Q478 216 468 216H158Q154 216 154 212Q152 188 152 180Q152 170 154 160Q159 120 188 98T268 75Q339 75 386 136Q392 146 399 139L450 101Q456 95 451 88Q418 42 365 17T249 -9Q178 -9 134 22T72 114Q62 148 62 194Q62 213 66 257Q71 295 76 321T91 368Q117 437 174 477T306 517Q402 517 444 468T487 325Q487 290 479 226ZM254 434T225 413T180 355Q171 333 165 299Q164 295 168 295H390Q394 295 394 299Q396 323 396 331Q396 377 370 405T296 434Q254 434 225 413ZM377 593T362 608T347 647Q347 679 367 700T418 721Q442 721 457 706T472 665Q472 634 452 614T402 593Q377 593 362 608ZM201 593T186 608T171 647Q171 679 191 700T242 721Q266 721 281 706T296 665Q296 634 276 614T226 593Q201 593 186 608Z"></glyph><glyph unicode="ì" glyph-name="igrave" d="M46 0T44 3T42 10L102 499Q104 509 113 509H187Q191 509 193 506T195 499L135 10Q133 0 124 0H50Q46 0 44 3ZM197 584T197 581Q197 577 194 575T186 573H134Q128 573 123 580L69 688Q68 690 68 694Q68 700 76 700H141Q149 700 152 693L196 585Q197 584 197 581Z"></glyph><glyph unicode="í" glyph-name="iacute" d="M46 0T44 3T42 10L102 499Q104 509 113 509H187Q191 509 193 506T195 499L135 10Q133 0 124 0H50Q46 0 44 3ZM112 573T110 576T112 585L182 693Q186 700 195 700H260Q265 700 266 697T264 688L182 580Q175 573 169 573H118Q112 573 110 576Z"></glyph><glyph unicode="î" glyph-name="icircumflex" d="M46 0T44 3T42 10L102 499Q104 509 113 509H187Q191 509 193 506T195 499L135 10Q133 0 124 0H50Q46 0 44 3ZM27 573T26 576T28 585L118 694Q123 700 132 700H214Q224 700 226 694L289 585L291 580Q291 573 282 573H225Q216 573 214 579L172 655Q171 657 169 657T166 655L103 579Q99 573 91 573H33Q27 573 26 576Z"></glyph><glyph unicode="ï" glyph-name="idieresis" d="M46 0T44 3T42 10L102 499Q104 509 113 509H187Q191 509 193 506T195 499L135 10Q133 0 124 0H50Q46 0 44 3ZM224 593T209 608T194 647Q194 679 214 700T265 721Q289 721 304 706T319 665Q319 634 299 614T249 593Q224 593 209 608ZM48 593T33 608T18 647Q18 679 38 700T89 721Q113 721 128 706T143 665Q143 634 123 614T73 593Q48 593 33 608Z"></glyph><glyph unicode="ð" glyph-name="eth" d="M482 316T474 240Q465 168 448 126Q421 66 365 29T238 -8Q168 -8 121 28T61 126Q58 146 58 166Q58 193 63 240Q72 313 89 354Q107 399 144 429T229 467Q256 472 281 472Q311 472 336 466T377 448Q379 446 380 447T381 451Q368 505 338 556Q336 560 333 558L236 531L232 530Q226 530 224 538L219 571Q219 581 228 584L300 605Q306 607 302 610Q268 653 235 688Q232 691 232 694Q232 700 241 700H321Q325 700 332 695Q337 688 349 674Q355 665 364 655T382 630Q384 628 387 629L469 652L473 653Q479 653 481 645L485 611V609Q485 601 477 598L421 582Q417 581 418 578Q449 530 465 478T480 359Q482 316 474 240ZM371 173T379 238Q384 283 384 304Q384 350 359 378T289 407Q249 407 219 385T175 324Q169 311 165 288T157 238Q152 195 152 174Q152 163 154 149Q159 111 183 89T247 66Q286 66 316 88T362 149Q371 173 379 238Z"></glyph><glyph unicode="ñ" glyph-name="ntilde" d="M404 516T444 477T485 369Q485 360 483 340L443 10Q442 6 439 3T432 0H358Q349 0 349 10L388 321Q389 327 389 339Q389 381 365 407T299 433Q252 433 220 402T181 322L143 10Q141 0 132 0H58Q48 0 50 10L110 499Q112 509 121 509H194Q199 509 201 506T203 499L198 463Q198 461 199 460T202 461Q250 516 332 516Q404 516 444 477ZM361 593T348 598T320 613Q303 623 295 627T275 631Q243 631 221 609L217 605Q211 599 205 605L181 633Q176 640 181 647Q200 673 225 687T279 701Q295 701 307 697T328 686T342 678Q346 676 355 670T372 662T388 659Q419 659 442 686Q448 696 456 688L476 660Q479 656 479 654T477 646Q462 621 436 607T380 593Q361 593 348 598Z"></glyph><glyph unicode="ò" glyph-name="ograve" d="M177 -8T129 29T67 134Q61 163 61 201Q61 229 64 256Q74 329 96 376Q125 442 183 479T315 517Q385 517 432 480T493 377Q499 349 499 313Q499 286 496 257Q488 187 464 134Q434 67 377 30T249 -8Q177 -8 129 29ZM299 75T331 97T380 161Q396 204 402 255Q406 299 406 317Q406 330 404 348Q396 389 370 411T302 434Q262 434 230 412T180 348Q166 314 158 255Q155 228 155 203Q155 179 158 161Q164 121 191 98T259 75Q299 75 331 97ZM352 584T352 581Q352 577 349 575T341 573H289Q283 573 278 580L224 688Q223 690 223 694Q223 700 231 700H296Q304 700 307 693L351 585Q352 584 352 581Z"></glyph><glyph unicode="ó" glyph-name="oacute" d="M177 -8T129 29T67 134Q61 163 61 201Q61 229 64 256Q74 329 96 376Q125 442 183 479T315 517Q385 517 432 480T493 377Q499 349 499 313Q499 286 496 257Q488 187 464 134Q434 67 377 30T249 -8Q177 -8 129 29ZM299 75T331 97T380 161Q396 204 402 255Q406 299 406 317Q406 330 404 348Q396 389 370 411T302 434Q262 434 230 412T180 348Q166 314 158 255Q155 228 155 203Q155 179 158 161Q164 121 191 98T259 75Q299 75 331 97ZM267 573T265 576T267 585L337 693Q341 700 350 700H415Q420 700 421 697T419 688L337 580Q330 573 324 573H273Q267 573 265 576Z"></glyph><glyph unicode="ô" glyph-name="ocircumflex" d="M177 -8T129 29T67 134Q61 163 61 201Q61 229 64 256Q74 329 96 376Q125 442 183 479T315 517Q385 517 432 480T493 377Q499 349 499 313Q499 286 496 257Q488 187 464 134Q434 67 377 30T249 -8Q177 -8 129 29ZM299 75T331 97T380 161Q396 204 402 255Q406 299 406 317Q406 330 404 348Q396 389 370 411T302 434Q262 434 230 412T180 348Q166 314 158 255Q155 228 155 203Q155 179 158 161Q164 121 191 98T259 75Q299 75 331 97ZM182 573T181 576T183 585L273 694Q278 700 287 700H369Q379 700 381 694L444 585L446 580Q446 573 437 573H380Q371 573 369 579L327 655Q326 657 324 657T321 655L258 579Q254 573 246 573H188Q182 573 181 576Z"></glyph><glyph unicode="õ" glyph-name="otilde" d="M177 -8T129 29T67 134Q61 163 61 201Q61 229 64 256Q74 329 96 376Q125 442 183 479T315 517Q385 517 432 480T493 377Q499 349 499 313Q499 286 496 257Q488 187 464 134Q434 67 377 30T249 -8Q177 -8 129 29ZM299 75T331 97T380 161Q396 204 402 255Q406 299 406 317Q406 330 404 348Q396 389 370 411T302 434Q262 434 230 412T180 348Q166 314 158 255Q155 228 155 203Q155 179 158 161Q164 121 191 98T259 75Q299 75 331 97ZM358 593T345 598T317 613Q300 623 292 627T272 631Q240 631 218 609L214 605Q208 599 202 605L178 633Q173 640 178 647Q197 673 222 687T276 701Q292 701 304 697T325 686T339 678Q343 676 352 670T369 662T385 659Q416 659 439 686Q445 696 453 688L473 660Q476 656 476 654T474 646Q459 621 433 607T377 593Q358 593 345 598Z"></glyph><glyph unicode="ö" glyph-name="odieresis" d="M177 -8T129 29T67 134Q61 163 61 201Q61 229 64 256Q74 329 96 376Q125 442 183 479T315 517Q385 517 432 480T493 377Q499 349 499 313Q499 286 496 257Q488 187 464 134Q434 67 377 30T249 -8Q177 -8 129 29ZM299 75T331 97T380 161Q396 204 402 255Q406 299 406 317Q406 330 404 348Q396 389 370 411T302 434Q262 434 230 412T180 348Q166 314 158 255Q155 228 155 203Q155 179 158 161Q164 121 191 98T259 75Q299 75 331 97ZM379 593T364 608T349 647Q349 679 369 700T420 721Q444 721 459 706T474 665Q474 634 454 614T404 593Q379 593 364 608ZM203 593T188 608T173 647Q173 679 193 700T244 721Q268 721 283 706T298 665Q298 634 278 614T228 593Q203 593 188 608Z"></glyph><glyph unicode="÷" glyph-name="divide" d="M251 432T237 446T223 483Q223 509 242 528T287 548Q309 548 323 534T337 497Q337 471 317 452T273 432Q251 432 237 446ZM54 279T52 282T50 289L58 351Q58 355 61 358T69 361H461Q466 361 468 358T470 351L462 289Q462 285 459 282T451 279H59Q54 279 52 282ZM211 107T197 121T183 158Q183 183 203 203T248 223Q269 223 283 208T297 172Q297 146 277 127T233 107Q211 107 197 121Z"></glyph><glyph unicode="ø" glyph-name="oslash" d="M491 349T491 313Q491 282 487 257Q479 187 455 134Q425 67 369 30T241 -8Q182 -8 136 18Q132 20 131 17L91 -34Q84 -43 77 -36L30 7Q24 13 30 21L75 78Q77 81 75 84Q64 108 58 134Q53 164 53 196Q53 229 57 256Q65 330 87 376Q117 442 174 479T306 517Q360 517 400 495Q404 493 405 496L445 547Q452 556 459 549L507 507Q510 504 510 501Q510 498 507 493L464 439Q463 437 463 433Q477 411 485 377Q491 349 491 313ZM146 222T146 195Q146 182 147 176Q147 174 149 174T152 175L344 417Q346 422 343 423Q324 434 294 434Q254 434 222 412T172 348Q158 316 151 255Q146 222 146 195ZM386 193T393 255Q397 286 397 317Q397 335 396 342V343L395 350H394L192 95Q190 91 193 90Q217 75 251 75Q290 75 322 98T371 161Q386 193 393 255Z"></glyph><glyph unicode="ù" glyph-name="ugrave" d="M404 503T407 506T415 509H487Q492 509 494 506T496 499L436 10Q434 0 425 0H352Q342 0 344 10L348 47Q349 49 348 49T344 48Q298 -7 217 -7Q150 -7 105 30T60 134Q60 150 61 158L103 499Q105 509 114 509H187Q191 509 193 506T195 499L157 188Q156 181 156 168Q156 125 179 101T245 76Q294 76 326 106T365 188L404 499Q404 503 407 506ZM352 584T352 581Q352 577 349 575T341 573H289Q283 573 278 580L224 688Q223 690 223 694Q223 700 231 700H296Q304 700 307 693L351 585Q352 584 352 581Z"></glyph><glyph unicode="ú" glyph-name="uacute" d="M404 503T407 506T415 509H487Q492 509 494 506T496 499L436 10Q434 0 425 0H352Q342 0 344 10L348 47Q349 49 348 49T344 48Q298 -7 217 -7Q150 -7 105 30T60 134Q60 150 61 158L103 499Q105 509 114 509H187Q191 509 193 506T195 499L157 188Q156 181 156 168Q156 125 179 101T245 76Q294 76 326 106T365 188L404 499Q404 503 407 506ZM267 573T265 576T267 585L337 693Q341 700 350 700H415Q420 700 421 697T419 688L337 580Q330 573 324 573H273Q267 573 265 576Z"></glyph><glyph unicode="û" glyph-name="ucircumflex" d="M404 503T407 506T415 509H487Q492 509 494 506T496 499L436 10Q434 0 425 0H352Q342 0 344 10L348 47Q349 49 348 49T344 48Q298 -7 217 -7Q150 -7 105 30T60 134Q60 150 61 158L103 499Q105 509 114 509H187Q191 509 193 506T195 499L157 188Q156 181 156 168Q156 125 179 101T245 76Q294 76 326 106T365 188L404 499Q404 503 407 506ZM182 573T181 576T183 585L273 694Q278 700 287 700H369Q379 700 381 694L444 585L446 580Q446 573 437 573H380Q371 573 369 579L327 655Q326 657 324 657T321 655L258 579Q254 573 246 573H188Q182 573 181 576Z"></glyph><glyph unicode="ü" glyph-name="udieresis" d="M404 503T407 506T415 509H487Q492 509 494 506T496 499L436 10Q434 0 425 0H352Q342 0 344 10L348 47Q349 49 348 49T344 48Q298 -7 217 -7Q150 -7 105 30T60 134Q60 150 61 158L103 499Q105 509 114 509H187Q191 509 193 506T195 499L157 188Q156 181 156 168Q156 125 179 101T245 76Q294 76 326 106T365 188L404 499Q404 503 407 506ZM379 593T364 608T349 647Q349 679 369 700T420 721Q444 721 459 706T474 665Q474 634 454 614T404 593Q379 593 364 608ZM203 593T188 608T173 647Q173 679 193 700T244 721Q268 721 283 706T298 665Q298 634 278 614T228 593Q203 593 188 608Z"></glyph><glyph unicode="ý" glyph-name="yacute" d="M7 -199T5 -196T4 -189L11 -130Q13 -120 22 -120H24Q63 -119 86 -110T127 -77T165 -3Q166 -2 166 0T165 3L64 498V500Q64 509 73 509H152Q160 509 162 501L226 124Q226 122 228 122T232 124L386 501Q391 509 399 509H476Q487 509 482 498L240 -35Q209 -103 183 -137T119 -185T16 -199H10Q7 -199 5 -196ZM236 579T234 582T236 591L306 699Q310 706 319 706H384Q389 706 390 703T388 694L306 586Q299 579 293 579H242Q236 579 234 582Z"></glyph><glyph unicode="þ" glyph-name="thorn" d="M492 362T492 339Q492 302 486 254Q481 210 476 184T462 135Q437 70 384 31T267 -8Q188 -8 153 53Q152 55 150 54T148 51L118 -190Q118 -194 115 -197T107 -200H34Q29 -200 27 -197T25 -190L133 690Q135 700 144 700H218Q228 700 226 690L198 461Q198 459 200 458T203 459Q248 517 328 517Q394 517 437 480T489 383Q492 362 492 339ZM376 175T380 194T389 255Q395 305 395 322Q395 338 392 351Q387 388 362 411T297 434Q257 434 228 412T187 354Q186 353 186 352T185 351L184 349L161 160V156Q166 121 189 98T253 75Q294 75 325 98T369 158Q376 175 380 194Z"></glyph><glyph unicode="ÿ" glyph-name="ydieresis" d="M7 -199T5 -196T4 -189L11 -130Q13 -120 22 -120H24Q63 -119 86 -110T127 -77T165 -3Q166 -2 166 0T165 3L64 498V500Q64 509 73 509H152Q160 509 162 501L226 124Q226 122 228 122T232 124L386 501Q391 509 399 509H476Q487 509 482 498L240 -35Q209 -103 183 -137T119 -185T16 -199H10Q7 -199 5 -196ZM348 599T333 614T318 653Q318 685 338 706T389 727Q413 727 428 712T443 671Q443 640 423 620T373 599Q348 599 333 614ZM172 599T157 614T142 653Q142 685 162 706T213 727Q237 727 252 712T267 671Q267 640 247 620T197 599Q172 599 157 614Z"></glyph><glyph unicode="–" glyph-name="endash" d="M45 241T45 251L53 315Q55 325 64 325H422Q431 325 431 315L423 251Q421 241 412 241H54Q45 241 45 251Z"></glyph><glyph unicode="—" glyph-name="emdash" d="M45 242T45 252L53 315Q55 325 64 325H633Q637 325 639 322T641 315L633 252Q633 248 630 245T622 242H54Q45 242 45 252Z"></glyph><glyph unicode="‘" glyph-name="quoteleft" d="M48 488T46 491T47 500L146 692Q150 700 158 700H213Q225 700 220 689L140 496Q137 488 128 488H53Q48 488 46 491Z"></glyph><glyph unicode="’" glyph-name="quoteright" d="M217 700T219 697T218 688L119 496Q115 488 107 488H52Q40 488 45 499L125 692Q128 700 137 700H212Q217 700 219 697Z"></glyph><glyph unicode="‚" glyph-name="quotesinglbase" d="M30 -86T28 -83T28 -75L94 147Q96 156 105 156H170Q175 156 177 153T177 145L92 -77Q91 -81 88 -83T81 -86H35Q30 -86 28 -83Z"></glyph><glyph unicode="“" glyph-name="quotedblleft" d="M47 488T46 491T46 500L139 692Q143 700 151 700H203Q214 700 211 689L136 497Q132 488 124 488H52Q47 488 46 491ZM187 488T190 500L283 692Q287 700 294 700H347Q359 700 354 689L280 497Q279 493 276 491T268 488H197Q187 488 190 500Z"></glyph><glyph unicode="”" glyph-name="quotedblright" d="M212 700T209 688L116 496Q113 488 105 488H52Q40 488 45 499L119 691Q120 695 123 697T131 700H202Q212 700 209 688ZM352 700T353 697T353 688L260 496Q256 488 248 488H196Q185 488 188 499L263 691Q267 700 275 700H347Q352 700 353 697Z"></glyph><glyph unicode="„" glyph-name="quotedblbase" d="M142 128T139 116L46 -76Q43 -84 35 -84H-18Q-30 -84 -25 -73L49 119Q50 123 53 125T61 128H132Q142 128 139 116ZM282 128T283 125T283 116L190 -76Q186 -84 178 -84H126Q115 -84 118 -73L193 119Q197 128 205 128H277Q282 128 283 125Z"></glyph><glyph unicode="•" glyph-name="bullet" d="M106 150T77 180T47 256Q47 292 65 323T115 372T180 390Q224 390 253 361T283 286Q283 250 265 219T215 169T150 150Q106 150 77 180Z"></glyph><glyph unicode="‹" glyph-name="guilsinglleft" d="M251 114Q251 107 242 107H169Q162 107 158 113L67 274Q65 278 65 280Q65 284 68 288L200 449Q204 455 212 455H285Q291 455 292 452T289 443L158 284Q157 282 157 278L249 119L251 114Z"></glyph><glyph unicode="›" glyph-name="guilsinglright" d="M82 107T81 110T83 119L215 278Q217 281 215 284L123 443Q121 447 121 448Q121 455 131 455H203Q212 455 214 449L307 288Q308 286 308 282Q308 279 305 274L173 113Q168 107 161 107H88Q82 107 81 110Z"></glyph></font>
</defs>
</svg>
